<?xml version="1.0" standalone="no"?>
<!DOCTYPE svg PUBLIC "-//W3C//DTD SVG 1.1//EN" "http://www.w3.org/Graphics/SVG/1.1/DTD/svg11.dtd" >
<svg xmlns="http://www.w3.org/2000/svg" xmlns:xlink="http://www.w3.org/1999/xlink" version="1.1">
<metadata>
Created by FontForge 20170731 at Wed Oct 24 12:47:30 2001
 By Aleksey,,,
(c) 2001 Beth Mardutho: The Syriac Institute. For free distribution. Created by  George Kiraz, Christine Kiraz, and Paul Nelson. Sponsored by the Diocese of Western California of the Assyrian Church of the East.
</metadata>
<defs>
<font id="EastSyriacAdiabene" horiz-adv-x="1024" >
  <font-face 
    font-family="East Syriac Adiabene"
    font-weight="400"
    font-stretch="normal"
    units-per-em="2048"
    panose-1="0 0 4 0 0 0 0 0 0 0"
    ascent="1638"
    descent="-410"
    x-height="762"
    cap-height="1171"
    bbox="-233 -715 1818 1560"
    underline-thickness="20"
    underline-position="-180"
    unicode-range="U+000D-2671"
  />
<missing-glyph 
d="M128 0v1400h768v-1400h-768zM256 128h512v1144h-512v-1144z" />
    <glyph glyph-name="U0717U071dIsol" unicode="&#x717;&#x71d;" horiz-adv-x="1131" 
d="M1069 290q0 -324 -41 -406q-41 188 -41 406v102h-150q-31 -52 -30 -144q1 -13 2 -47q1 -29 1 -45q0 -156 -210 -156q-219 0 -272 165q-91 -137 -181 -223v87q0 55 113 168q-8 24 -57 75q-39 40 -79 81v247l194 -189q22 124 106 165q51 24 166 24h131q211 0 348 95v-405z
M726 392h-251q0 -97 43 -146q34 -38 82 -38q84 0 111 61q17 38 15 123z" />
    <glyph glyph-name="U072aU0308Isol" unicode="&#x72a;&#x308;" horiz-adv-x="596" 
d="M537 722h-155v202h155v-202zM280 722h-156v202h156v-202zM596 0h-472v208h298v55q0 154 -139 154q-69 0 -159 -43v202q66 49 171 49q142 0 229 -121q72 -101 72 -217v-287z" />
    <glyph glyph-name=".notdef" 
d="M128 0v1400h768v-1400h-768zM256 128h512v1144h-512v-1144z" />
    <glyph glyph-name=".null" horiz-adv-x="0" 
 />
    <glyph glyph-name="nonmarkingreturn" unicode="&#xd;" horiz-adv-x="681" 
 />
    <glyph glyph-name="space" unicode=" " horiz-adv-x="681" 
 />
    <glyph glyph-name="exclam" unicode="!" horiz-adv-x="549" 
d="M355 1207l-1 -34l-38 -678q-3 -58 -42 -58q-40 0 -43 58l-37 678l-2 35q0 34 23.5 57t58.5 23t58.5 -23t22.5 -58zM397 77q0 -43 -30.5 -73.5t-73.5 -30.5h-39q-43 0 -73.5 30t-30.5 73q0 44 30 74.5t74 30.5h39q43 0 73.5 -30.5t30.5 -73.5z" />
    <glyph glyph-name="quotedbl" unicode="&#x22;" horiz-adv-x="996" 
d="M845 1236l-70 -486q-10 -69 -62 -69q-53 0 -63 69l-71 486h266zM416 1236l-70 -486q-10 -69 -63 -69t-63 69l-70 486h266z" />
    <glyph glyph-name="numbersign" unicode="#" horiz-adv-x="1070" 
d="M974 781q0 -42 -56 -42h-185l-18 -264h161q56 0 56 -42t-56 -42h-167l-33 -468q-4 -54 -42 -54q-46 0 -42 60l33 462h-190l-32 -468q-4 -54 -42 -54q-43 0 -43 42l33 480h-175q-56 0 -56 42t56 42h181l18 264h-156q-57 0 -57 42t57 42h162l33 468q4 54 42 54l18 -4
q25 -16 25 -37l-33 -481h189l33 468q4 54 42 54q43 0 43 -41l-34 -481h179q56 0 56 -42zM649 739h-189l-19 -264h190z" />
    <glyph glyph-name="dollar" unicode="$" horiz-adv-x="1070" 
d="M922 415q0 -134 -109 -217q-94 -73 -236 -87v-247q0 -57 -42 -57t-42 57v247q-154 10 -259 100q0 -78 -42 -78t-42 56v164q0 57 42 57q18 0 31 -13q7 -27 14 -53q14 -48 83 -95q79 -56 215 -56q116 0 201 52q102 62 102 171q0 133 -167 183q-155 38 -311 76
q-167 63 -167 227q0 120 92 203q85 76 208 91q0 5 -2 31t-2 43q0 89 46 89t46 -89q0 -17 -2 -43t-2 -31q116 -10 216 -77q2 49 42 49q43 0 43 -56v-125q0 -56 -43 -56q-24 0 -43 47q-23 58 -61 84q-80 54 -193 54q-99 0 -176 -57q-84 -62 -84 -158q0 -122 167 -168
q155 -38 310 -75q167 -68 167 -243z" />
    <glyph glyph-name="percent" unicode="%" horiz-adv-x="1070" 
d="M662 1014q0 -107 -74.5 -183.5t-181.5 -76.5q-108 0 -182 76t-74 184t74 183.5t182 75.5t182 -75.5t74 -183.5zM964 755q0 -22 -30 -32q-208 -70 -416 -139q-357 -118 -383 -118q-28 0 -28 30q0 22 30 32q208 70 416 139q356 118 384 118q27 0 27 -30zM921 233
q0 -108 -74.5 -183.5t-182.5 -75.5q-107 0 -181.5 76t-74.5 183q0 108 74 184t182 76t182.5 -76t74.5 -184zM602 1014q0 83 -57 141t-139 58t-139 -58t-57 -141t57 -141t139 -58t139 58t57 141zM860 233q0 83 -56.5 141t-139.5 58q-82 0 -139 -58t-57 -141q0 -82 57 -140.5
t139 -58.5t139 58t57 141z" />
    <glyph glyph-name="ampersand" unicode="&#x26;" horiz-adv-x="1070" 
d="M918 44q0 -42 -56 -42h-114l-64 99q-90 -132 -232 -132q-128 0 -217 100q-85 97 -85 227q0 109 62.5 190t168.5 112q-103 166 -103 234q0 103 76 175.5t179 72.5q70 0 136 -41q43 22 53 22q42 0 42 -43q0 -24 -40 -48l-60 -30q-61 55 -130 55q-67 0 -119.5 -49.5
t-52.5 -115.5q0 -65 90 -208l232 -369q61 115 96 266h82q56 0 56 -42q0 -43 -74 -43q-48 -169 -110 -262l57 -86q84 0 76 1q51 -6 51 -43zM635 179l-218 345q-83 -20 -133 -81.5t-50 -146.5q0 -93 61 -166q64 -77 155 -77q112 0 185 126z" />
    <glyph glyph-name="quotesingle" unicode="'" horiz-adv-x="565" 
d="M416 1255l-70 -525q-10 -75 -63 -75t-63 75l-70 525h266z" />
    <glyph glyph-name="parenleft" unicode="(" horiz-adv-x="638" 
d="M488 -209q0 -42 -43 -42q-40 0 -147 210q-148 291 -148 548q0 115 30 244q23 98 111 289q103 224 154 224q43 0 43 -41q0 -9 -7 -22q-116 -223 -157 -366q-47 -164 -47 -328q0 -165 47 -329q41 -143 157 -365q7 -13 7 -22z" />
    <glyph glyph-name="parenright" unicode=")" horiz-adv-x="638" 
d="M488 507q0 -257 -148 -548q-107 -210 -147 -210q-43 0 -43 42q0 9 7 22q116 222 157 365q47 164 47 329q0 164 -47 328q-41 143 -157 366q-7 13 -7 22q0 41 43 41q51 0 154 -224q88 -191 111 -289q30 -129 30 -244z" />
    <glyph glyph-name="asterisk" unicode="*" horiz-adv-x="1067" 
d="M919 968q0 -31 -43 -45l-273 -89q50 -65 100 -131q85 -114 85 -137q0 -43 -42 -43q-22 0 -43 29l-169 233l-169 -233q-21 -29 -42 -29q-43 0 -43 43q0 21 86 137q50 66 100 131l-274 90q-42 14 -42 44q0 42 39 42q29 0 149 -41l154 -54v287q0 57 43 57q42 0 42 -57v-287
l154 54q120 41 148 41q40 0 40 -42z" />
    <glyph glyph-name="plus" unicode="+" horiz-adv-x="1242" 
d="M1091 585q0 -42 -56 -42h-372v-420q0 -56 -43 -56q-42 0 -42 56v420h-372q-56 0 -56 42t56 42h372v418q0 56 43 56q42 0 42 -56v-418h372q56 0 56 -42z" />
    <glyph glyph-name="comma" unicode="," horiz-adv-x="721" 
d="M572 297l-297 -552q-27 -50 -65 -50q-60 0 -60 60q0 31 66 261q42 141 83 281h273z" />
    <glyph glyph-name="period" unicode="." horiz-adv-x="634" 
d="M438 111q0 -47 -39 -95t-84 -48t-84 48t-39 95q0 48 39 96t84 48t84 -48t39 -96z" />
    <glyph glyph-name="slash" unicode="/" horiz-adv-x="1073" 
d="M922 1356q0 -12 -10 -33l-676 -1448q-17 -37 -44 -37q-42 0 -42 40q0 12 10 33l675 1448q17 37 45 37q42 0 42 -40z" />
    <glyph glyph-name="zero" unicode="0" horiz-adv-x="1070" 
d="M921 522q0 -212 -85 -365q-104 -188 -299 -188q-196 0 -301 187q-86 153 -86 366v208q0 212 84 365q105 189 300 189q197 0 301 -188q86 -153 86 -366v-208zM837 534v185q0 175 -65 309q-82 171 -237 171q-154 0 -236 -172q-65 -135 -65 -308v-185q0 -175 65 -310
q83 -171 238 -171q153 0 236 173q64 135 64 308z" />
    <glyph glyph-name="one" unicode="1" horiz-adv-x="1070" 
d="M705 43q0 -42 -56 -42h-226q-56 0 -56 42q0 43 56 43h71v1072q-21 -7 -47 -23q-17 -11 -42 -11q-40 0 -40 42q0 29 43 45l170 63v-1188h71q56 0 56 -43z" />
    <glyph glyph-name="two" unicode="2" horiz-adv-x="1070" 
d="M922 0h-772v124q158 142 362 352q274 281 309 371q15 39 15 79q0 115 -92 196q-88 78 -205 78q-107 0 -190.5 -59t-114.5 -160q-3 -12 -15 -31q-12 -10 -28 -10q-40 0 -40 39q0 48 52.5 129.5t145.5 129.5q90 47 189 47q149 0 264 -102q119 -106 119 -254q0 -57 -19 -106
q-40 -105 -306 -381q-209 -218 -364 -352v-6h605q0 46 3 57q8 32 40 32q46 0 46 -94q0 -18 -2 -46t-2 -33z" />
    <glyph glyph-name="three" unicode="3" horiz-adv-x="1070" 
d="M925 352q0 -166 -134 -277q-126 -105 -295 -105q-108 0 -224 46q-147 58 -147 118q0 40 39 40q5 0 55 -31q61 -38 114 -58q82 -31 165 -31q130 0 233 81q110 87 110 214q0 134 -123 222q-111 80 -249 80q-56 0 -56 42q0 37 48 42q-13 -1 74 -1q103 0 179 62q81 66 81 167
q0 107 -87 175q-81 63 -191 63q-180 0 -277 -112q-7 -9 -24 -24q-8 -5 -20 -5q-41 0 -41 39t87 101q120 85 275 85q147 0 252 -87q111 -92 111 -236q0 -188 -193 -279q105 -47 169 -131q69 -91 69 -200z" />
    <glyph glyph-name="four" unicode="4" horiz-adv-x="1070" 
d="M919 42q0 -42 -56 -42h-226q-56 0 -56 42q0 43 56 43h71l-1 267h-557v97l467 807h175v-820q86 0 76 1q51 -6 51 -43t-52 -43q9 1 -75 1v-267h71q56 0 56 -43zM707 436v735h-44l-425 -735h469z" />
    <glyph glyph-name="five" unicode="5" horiz-adv-x="1070" 
d="M925 418q0 -192 -113 -317q-118 -131 -307 -131q-200 0 -341 125q-38 34 -38 55q0 43 40 43q7 0 55 -36q57 -44 109 -67q81 -36 171 -36q156 0 250 107q89 103 89 261q0 136 -78 224q-81 91 -216 91q-123 0 -262 -69q-32 -16 -45 -16q-40 0 -40 46v557h586q56 0 56 -43
q0 -42 -56 -42h-502v-411q148 62 271 62q169 0 272 -119q99 -113 99 -284z" />
    <glyph glyph-name="six" unicode="6" horiz-adv-x="1070" 
d="M926 369q0 -162 -96 -277q-102 -122 -261 -122q-221 0 -333 230q-86 178 -86 426q0 262 171 457q178 202 437 202q51 0 98 -15q66 -20 66 -59q0 -41 -39 -41q-7 0 -53 15t-80 15q-213 0 -368 -179q-148 -171 -148 -387q0 -33 6 -103q153 225 344 225q148 0 248 -122
q94 -114 94 -265zM842 369q0 117 -71 207q-76 96 -190 96q-174 0 -322 -280q70 -338 312 -338q124 0 201 98q70 90 70 217z" />
    <glyph glyph-name="seven" unicode="7" horiz-adv-x="1070" 
d="M921 1120l-338 -1080q-13 -43 -44 -43q-42 0 -42 40q0 9 6 28l333 1066v38h-602q0 -91 1 -77q-5 -53 -43 -53q-42 0 -42 53v162h771v-134z" />
    <glyph glyph-name="eight" unicode="8" horiz-adv-x="1070" 
d="M918 336q0 -155 -114 -261t-270 -106t-270 106t-114 261q0 210 213 314q-192 110 -192 289q0 144 110 246q107 99 253 99t254.5 -100t108.5 -245q0 -179 -191 -289q212 -103 212 -314zM811 936q0 113 -82 188t-196 75q-112 0 -193 -74q-84 -77 -84 -188q0 -107 86 -178
q82 -67 191 -67t191 66q87 71 87 178zM834 334q0 119 -92 199q-87 76 -208 76q-120 0 -208 -76q-92 -79 -92 -198q0 -121 91 -203q87 -79 209 -79q121 0 210.5 80.5t89.5 200.5z" />
    <glyph glyph-name="nine" unicode="9" horiz-adv-x="1070" 
d="M922 607q0 -177 -57 -296q-73 -151 -222.5 -245.5t-316.5 -94.5q-54 0 -103 14q-70 21 -70 60q0 40 41 40q12 0 54.5 -15t70.5 -15q222 0 372 159q147 155 147 379q0 42 -4 118q-130 -231 -338 -231q-152 0 -253 126q-93 117 -93 273q0 161 94 279q100 128 257 128
q227 0 338 -240q83 -182 83 -439zM818 851q-41 157 -98 237q-82 113 -217 113q-122 0 -199 -102q-70 -94 -70 -219q0 -121 70 -214q77 -102 194 -102q109 0 197 96q51 57 123 191z" />
    <glyph glyph-name="colon" unicode=":" horiz-adv-x="634" 
d="M438 731q0 -47 -39 -95t-84 -48t-84 48t-39 95q0 48 39 96t84 48t84 -48t39 -96zM438 111q0 -47 -39 -95t-84 -48t-84 48t-39 95q0 48 39 96t84 48t84 -48t39 -96z" />
    <glyph glyph-name="semicolon" unicode=";" horiz-adv-x="756" 
d="M606 730q0 -57 -39 -97t-96 -40h-37q-56 0 -95.5 39.5t-39.5 95.5q0 57 39 97t96 40h37q56 0 95.5 -39.5t39.5 -95.5zM552 301l-283 -464q-32 -52 -63 -52q-56 0 -56 51q0 11 6 31l132 434h264z" />
    <glyph glyph-name="less" unicode="&#x3c;" horiz-adv-x="1229" 
d="M1081 1059q0 -25 -34 -44l-778 -432l777 -432q34 -19 34 -44q0 -42 -42 -42q-11 0 -33 12l-907 506l908 506q22 12 33 12q42 0 42 -42z" />
    <glyph glyph-name="equal" unicode="=" horiz-adv-x="1278" 
d="M1129 737q0 -42 -53 -42l-873 1q-53 0 -53 43q0 42 53 42l873 -1q53 0 53 -43zM1129 436q0 -42 -53 -42l-873 1q-53 0 -53 42t53 42l873 -1q53 0 53 -42z" />
    <glyph glyph-name="greater" unicode="&#x3e;" horiz-adv-x="1229" 
d="M1131 583l-908 -506q-22 -12 -33 -12q-42 0 -42 42q0 25 34 44l778 432l-777 432q-34 19 -34 44q0 42 42 42q11 0 33 -12z" />
    <glyph glyph-name="question" unicode="?" horiz-adv-x="1027" 
d="M878 847q0 -127 -115 -215q-63 -48 -228 -118q0 -99 1 -84q-5 -57 -43 -57q-43 0 -43 56v141q147 55 215 97q129 80 129 178q0 121 -85.5 196t-207.5 75t-267 -71q0 -102 2 -85q-6 -57 -44 -57q-42 0 -42 56v141q129 57 173 71q89 29 185 29q161 0 264 -95
q106 -98 106 -258zM638 74q0 -43 -31 -73.5t-74 -30.5h-84q-43 0 -73.5 30t-30.5 73q0 44 30 74.5t74 30.5h84q44 0 74.5 -30t30.5 -74z" />
    <glyph glyph-name="at" unicode="@" horiz-adv-x="1307" 
d="M1162 426q0 -42 -56 -42h-147v110q-165 -139 -353 -139q-119 0 -199 58q-91 65 -91 180q0 140 136 214q109 60 261 60q108 0 246 -28v123q0 100 -115 177q-107 73 -223 73q-164 0 -281 -164q-106 -147 -106 -309v-331q0 -165 108 -303q118 -151 288 -151q220 0 305 71
q19 16 33 16q41 0 41 -40q0 -31 -60 -70q-94 -61 -331 -61q-201 0 -341 178q-127 163 -127 360v336q0 196 128 366q141 187 339 187q141 0 280 -111.5t139 -223.5l-1 -493h71q56 0 56 -43zM959 595v167q-103 29 -238 29q-117 0 -209 -41q-120 -54 -120 -157q0 -82 67 -126
q57 -37 144 -37q185 0 356 165z" />
    <glyph glyph-name="A" unicode="A" horiz-adv-x="1356" 
d="M1286 41q0 -42 -56 -42h-226q-56 0 -56 42q0 43 56 43h71l-115 307h-552l-107 -307h61q56 0 56 -43q0 -42 -56 -42h-226q-56 0 -56 42q0 43 56 43h71l406 1087l140 -1l406 -1086h71q56 0 56 -43zM928 475l-232 611h-31l-225 -611h488z" />
    <glyph glyph-name="B" unicode="B" horiz-adv-x="1284" 
d="M1134 321q0 -136 -104 -230q-100 -91 -238 -91l-586 -1q-56 0 -56 42q0 43 56 43h71v1002h-71q-56 0 -56 43q0 42 56 42l486 -1q141 0 243 -80q111 -86 111 -223q0 -154 -165 -249q253 -91 253 -297zM961 874q0 96 -89 157q-78 55 -178 55h-333v-436h297q118 0 202 52
q101 61 101 172zM1049 319q0 64 -44 124q-91 122 -342 122h-302v-481h425q104 0 181 65q82 68 82 170z" />
    <glyph glyph-name="C" unicode="C" horiz-adv-x="1229" 
d="M1100 222q0 -22 -43 -70q-165 -185 -392 -185q-244 0 -419 220q-119 148 -119 317v171q0 211 145 366.5t354 155.5q208 0 358 -142v71q7 44 42 44q42 0 42 -56v-233q0 -57 -42 -57q-17 0 -28 12l-20 71q-17 65 -85 117q-116 89 -264 89q-178 0 -300 -137
q-118 -133 -118 -313v-147q0 -186 133 -324q134 -141 319 -141q108 0 202 54q59 34 127 102q55 54 68 54q40 0 40 -39z" />
    <glyph glyph-name="D" unicode="D" horiz-adv-x="1283" 
d="M1134 527q0 -207 -133 -363q-139 -164 -343 -164l-452 -1q-17 2 -43 12q-13 12 -13 30q0 43 56 43h71v1000h-71q-56 0 -56 43q0 42 56 42l452 1q316 0 447 -345q29 -76 29 -298zM1050 509v152q0 159 -111 289q-116 136 -273 136h-305v-1002h305q155 0 272 136
q112 131 112 289z" />
    <glyph glyph-name="E" unicode="E" horiz-adv-x="1241" 
d="M1091 0l-885 -1q-17 2 -43 12q-13 12 -13 30q0 43 56 43h71v1002h-71q-56 0 -56 43q0 42 56 42l841 -1v-155q0 -56 -42 -56q-44 0 -43 56l1 71h-602v-437h301v71q0 56 43 56q42 0 42 -56v-226q0 -56 -42 -56q-43 0 -43 56v71h-301v-481h646l-1 71q-1 56 43 56
q42 0 42 -56v-155z" />
    <glyph glyph-name="F" unicode="F" horiz-adv-x="1241" 
d="M1089 1015q0 -56 -42 -56q-44 0 -43 56l1 71h-644v-437h301v71q0 56 43 56q42 0 42 -56v-226q0 -56 -42 -56q-43 0 -43 56v71h-301v-481h71q56 0 56 -43q0 -42 -56 -42h-226q-56 0 -56 42q0 43 56 43h71v1002h-71q-56 0 -56 43q0 42 56 42l883 -1v-155z" />
    <glyph glyph-name="G" unicode="G" horiz-adv-x="1327" 
d="M1179 475q0 -42 -86 -42v-360q-194 -107 -382 -107q-251 0 -404 144q-157 147 -157 395v154q0 222 147 379.5t368 157.5q203 0 343 -111q0 44 3 55q8 29 40 29q42 0 42 -56v-190q0 -56 -42 -56q-26 0 -35 32q-18 62 -25 75q-27 50 -91 84q-104 54 -228 54
q-245 0 -384 -243q-54 -94 -54 -211v-153q0 -216 134 -338q128 -117 347 -117q136 0 293 72v311h-289q-56 0 -56 42q0 43 56 43l404 -1q56 0 56 -42z" />
    <glyph glyph-name="H" unicode="H" horiz-adv-x="1278" 
d="M1130 41q0 -42 -56 -42h-226q-56 0 -56 42q0 43 56 43h70v482h-557v-482h71q56 0 56 -43q0 -42 -56 -42h-226q-56 0 -56 42q0 43 56 43h71v1002h-71q-56 0 -56 43q0 42 56 42h226q56 0 56 -42q0 -43 -56 -43h-71v-436h557l1 436h-71q-56 0 -56 43q0 42 56 42h226
q56 0 56 -42q0 -43 -56 -43h-71v-1002h71q56 0 56 -43z" />
    <glyph glyph-name="I" unicode="I" horiz-adv-x="638" 
d="M488 41q0 -42 -56 -42h-226q-56 0 -56 42q0 43 56 43h71v1002h-71q-56 0 -56 43q0 42 56 42h226q56 0 56 -42q0 -43 -56 -43h-71v-1002h71q56 0 56 -43z" />
    <glyph glyph-name="J" unicode="J" horiz-adv-x="1278" 
d="M1138 1123q0 -42 -56 -42h-200v-742q0 -156 -114.5 -266.5t-271.5 -110.5q-194 0 -273 103q-64 82 -73 273q-3 56 42 56q37 0 43 -56q18 -164 63 -222q55 -70 198 -70q123 0 212 85t89 208v742h-329q-57 0 -57 42t57 42h614q56 0 56 -42z" />
    <glyph glyph-name="K" unicode="K" horiz-adv-x="1320" 
d="M1170 41q0 -42 -56 -42l-266 1q-56 0 -56 42q0 43 56 43h71l-408 525l-169 -152v-374h71q56 0 56 -43q0 -42 -56 -42h-226q-56 0 -56 42q0 43 56 43h71v1002h-71q-56 0 -56 43q0 42 56 42h226q56 0 56 -42q0 -43 -56 -43h-71v-517l580 517h-71q-56 0 -56 43q0 42 56 42
h263q56 0 56 -42q0 -43 -56 -43h-71l-462 -413l462 -589h71q56 0 56 -43z" />
    <glyph glyph-name="L" unicode="L" horiz-adv-x="1155" 
d="M1005 0l-799 -1q-56 0 -56 42q0 43 56 43h71l1 1002h-71q-56 0 -56 43q0 42 56 42h226q56 0 56 -42q0 -43 -56 -43h-71v-1002h559l-1 71q-1 56 43 56q42 0 42 -56v-155z" />
    <glyph glyph-name="M" unicode="M" horiz-adv-x="1491" 
d="M1342 41q0 -42 -56 -42h-226q-56 0 -56 42q0 43 56 43h71v1002h-18l-317 -735h-96l-323 735h-16v-1002h71q56 0 56 -43q0 -42 -56 -42h-226q-56 0 -56 42q0 43 56 43h71v1002h-71q-56 0 -56 43q0 18 13 30l43 12l224 -1l318 -724l313 724l225 1q17 -2 43 -12
q13 -12 13 -30q0 -43 -56 -43h-71v-1002h71q56 0 56 -43z" />
    <glyph glyph-name="N" unicode="N" horiz-adv-x="1364" 
d="M1215 1129q0 -43 -56 -43h-71v-1086h-108l-619 1047v-963h71q56 0 56 -43q0 -42 -56 -42h-226q-56 0 -56 42q0 43 56 43h71v1002h-71q-56 0 -56 43q0 42 56 42l178 -1l620 -1049v965h-71q-56 0 -56 43q0 42 56 42h226q56 0 56 -42z" />
    <glyph glyph-name="O" unicode="O" horiz-adv-x="1324" 
d="M1174 584q0 -240 -133 -418q-147 -197 -379 -197t-379 197q-133 179 -133 418t133 418q147 197 379 197t378 -197q134 -179 134 -418zM1089 584q0 202 -110 358q-123 173 -317 173t-317 -174q-111 -155 -111 -357q0 -201 111 -357q123 -174 317 -174t317 173
q110 155 110 358z" />
    <glyph glyph-name="P" unicode="P" horiz-adv-x="1192" 
d="M1044 828q0 -121 -81 -210q-73 -80 -195 -120q-55 -18 -131 -22q-55 -4 -141 -1q-115 4 -135 4v-396h71q56 0 56 -43q0 -42 -56 -42h-226q-56 0 -56 42q0 43 56 43h71v1002h-71q-56 0 -56 43q0 42 56 42l446 -1q156 0 270 -91q122 -97 122 -250zM960 828q0 113 -96 188
q-88 69 -204 69h-299v-522h268q123 0 221 69q110 78 110 196z" />
    <glyph glyph-name="Q" unicode="Q" horiz-adv-x="1324" 
d="M1174 581q0 -235 -131 -414q-144 -198 -371 -201l-112 -84q83 17 137 17q60 0 148.5 -27.5t117.5 -27.5q45 0 104 32.5t65 32.5q41 0 41 -42q0 -39 -89 -76q-78 -31 -126 -31q-43 0 -127 27t-132 27q-100 0 -283 -46q-20 -5 -29 -5q-41 0 -41 44q0 23 92 90q59 40 118 81
q-190 47 -303 230q-103 167 -103 373q0 239 134 418q146 197 378 197t378 -197q134 -179 134 -418zM1089 581q0 202 -110 358q-123 173 -317 173t-317 -174q-111 -155 -111 -357q0 -201 111 -357q123 -174 317 -174t317 173q110 155 110 358z" />
    <glyph glyph-name="R" unicode="R" horiz-adv-x="1332" 
d="M1181 40q0 -42 -56 -42l-139 1l-338 522h-287v-438h71q56 0 56 -43q0 -42 -56 -42h-226q-56 0 -56 42q0 43 56 43h71v1002h-71q-56 0 -56 43q0 42 56 42l466 -1q142 0 253 -89q119 -96 119 -235q0 -204 -289 -302l299 -460h71q56 0 56 -43zM960 849q0 100 -97 171
q-89 65 -193 65h-309v-480h229q126 0 237 58q133 71 133 186z" />
    <glyph glyph-name="S" unicode="S" horiz-adv-x="1229" 
d="M1044 314q0 -165 -134 -261q-120 -86 -291 -86q-219 0 -350 137q0 -58 -1 -65q-7 -39 -41 -39q-42 0 -42 56v232q0 57 42 57q18 0 30 -12q9 -38 19 -76q19 -72 92 -130q93 -76 251 -76q134 0 230 64q111 74 111 202q0 157 -190 214q-176 42 -352 85q-190 70 -190 259
q0 149 121 240q109 82 263 82q176 0 303 -111q0 84 42 84t42 -56v-214q0 -56 -42 -56q-18 0 -29 12l-19 71q-16 66 -80 119q-82 67 -214 67q-119 0 -205 -59q-98 -67 -98 -181q0 -150 190 -203l352 -82q190 -73 190 -274z" />
    <glyph glyph-name="T" unicode="T" horiz-adv-x="1241" 
d="M1091 1014q0 -56 -42 -56q-44 0 -43 56l1 71h-344v-1002h71q56 0 56 -43q0 -42 -56 -42h-226q-56 0 -56 42q0 43 56 43h71l-1 1002h-344l1 -71q1 -56 -43 -56q-42 0 -42 56v155h941v-155z" />
    <glyph glyph-name="U" unicode="U" horiz-adv-x="1360" 
d="M1215 1130q0 -43 -56 -43h-71v-702q0 -174 -114 -294q-117 -123 -289 -123q-173 0 -290.5 121.5t-117.5 295.5v702h-71q-56 0 -56 43q0 42 56 42h226q56 0 56 -42q0 -43 -56 -43h-71v-702q0 -136 92 -233q93 -100 228 -100t229 99t94 234v702h-71q-56 0 -56 43
q0 42 56 42h226q56 0 56 -42z" />
    <glyph glyph-name="V" unicode="V" horiz-adv-x="1506" 
d="M1358 1129q0 -43 -56 -43h-71l-416 -1086h-117l-423 1086h-68q-56 0 -56 43q0 42 56 42h226q56 0 56 -42q0 -43 -56 -43h-71l390 -1002h6l389 1002h-71q-56 0 -56 43q0 42 56 42h226q56 0 56 -42z" />
    <glyph glyph-name="W" unicode="W" horiz-adv-x="1963" 
d="M1818 1129q0 -43 -56 -43h-71l-376 -1086h-117l-214 651l-209 -651h-117l-383 1086h-68q-56 0 -56 43q0 42 56 42h226q56 0 56 -42q0 -43 -56 -43h-71l350 -1002h6l223 678h87l214 -678h16l349 1002h-71q-56 0 -56 43q0 42 56 42h226q56 0 56 -42z" />
    <glyph glyph-name="X" unicode="X" horiz-adv-x="1449" 
d="M1301 40q0 -42 -56 -42h-246q-56 0 -56 42q0 43 56 43h71l-347 446l-342 -446h71q56 0 56 -43q0 -42 -56 -42h-246q-56 0 -56 42q0 43 56 43h71l394 515l-376 487h-71q-56 0 -56 43q0 42 56 42h246q56 0 56 -42q0 -43 -56 -43h-71l324 -419l322 419h-71q-56 0 -56 43
q0 42 56 42h246q56 0 56 -42q0 -43 -56 -43h-71l-374 -487l399 -515h71q56 0 56 -43z" />
    <glyph glyph-name="Y" unicode="Y" horiz-adv-x="1371" 
d="M1221 1128q0 -43 -56 -43h-71l-363 -558v-444h71q56 0 56 -43q0 -42 -56 -42h-227q-56 0 -56 42q0 43 56 43h71v444l-369 558h-71q-56 0 -56 43q0 42 56 42h246q56 0 56 -42q0 -43 -56 -43h-71l308 -473l301 473h-71q-56 0 -56 43q0 42 56 42h246q56 0 56 -42z" />
    <glyph glyph-name="Z" unicode="Z" horiz-adv-x="1109" 
d="M959 0h-809v122l682 964h-560l1 -71q1 -56 -43 -56q-42 0 -42 56v155h725v-119l-682 -967h644l-1 71q-1 56 43 56q42 0 42 -56v-155z" />
    <glyph glyph-name="bracketleft" unicode="[" horiz-adv-x="644" 
d="M494 -216q0 -42 -53 -42h-291v1514h291q53 0 53 -43q0 -42 -56 -42h-204v-1345h204q56 0 56 -42z" />
    <glyph glyph-name="backslash" unicode="\" horiz-adv-x="1073" 
d="M922 -122q0 -40 -42 -40q-27 0 -44 37l-676 1448q-10 21 -10 33q0 40 42 40q28 0 45 -37l675 -1448q10 -21 10 -33z" />
    <glyph glyph-name="bracketright" unicode="]" horiz-adv-x="644" 
d="M494 -258h-291q-53 0 -53 42t56 42h204v1345h-204q-56 0 -56 42q0 43 53 43h291v-1514z" />
    <glyph glyph-name="asciicircum" unicode="^" horiz-adv-x="1073" 
d="M923 778q0 -42 -43 -42q-22 0 -42 26l-302 384l-302 -384q-21 -27 -41 -27q-43 0 -43 43q0 14 18 37l368 463l369 -463q18 -23 18 -37z" />
    <glyph glyph-name="underscore" unicode="_" horiz-adv-x="1229" 
d="M1229 -519q0 -42 -53 -42h-1123q-53 0 -53 42t53 42h1123q53 0 53 -42z" />
    <glyph glyph-name="grave" unicode="`" horiz-adv-x="642" 
d="M492 1065q0 -43 -43 -43q-15 0 -38 20l-236 204q-25 22 -25 41q0 43 43 43q25 0 159 -120q125 -110 137 -129q3 -9 3 -16z" />
    <glyph glyph-name="a" unicode="a" horiz-adv-x="1146" 
d="M997 42q0 -42 -56 -42h-147v109q-165 -139 -353 -139q-119 0 -199 58q-91 65 -91 180q0 141 136 215q109 60 261 60q108 0 246 -28v123q0 81 -80 122q-62 32 -151 32q-57 0 -163.5 -30.5t-121.5 -30.5q-35 0 -35 38q0 14 9 25q17 20 147 48q121 27 168 27q116 0 203 -56
q101 -64 101 -175l-1 -493h71q56 0 56 -43zM794 210v167q-103 30 -238 30q-117 0 -209 -42q-120 -54 -120 -157q0 -82 67 -125q57 -37 144 -37q185 0 356 164z" />
    <glyph glyph-name="b" unicode="b" horiz-adv-x="1229" 
d="M1127 375q0 -176 -123.5 -298t-299.5 -122q-218 0 -347 178v-133h-155q-56 0 -56 42q0 43 56 43h71v1079h-71q-56 0 -56 43q0 42 56 42h155l1 -632q129 177 346 177q176 0 299.5 -122t123.5 -297zM1051 375q0 144 -102 243.5t-246 99.5q-143 0 -245 -100t-102 -243
q0 -144 101.5 -243.5t245.5 -99.5q145 0 246.5 99.5t101.5 243.5z" />
    <glyph glyph-name="c" unicode="c" horiz-adv-x="1094" 
d="M988 159q0 -39 -92 -99q-146 -96 -327 -96q-183 0 -301 115.5t-118 297.5q0 184 120 304.5t304 120.5q174 0 293 -104v33q1 44 37 44q39 0 39 -51v-172q0 -51 -39 -51q-15 0 -25 10l-18 59q-15 51 -79 98q-78 57 -212 57q-154 0 -249 -96.5t-95 -250.5q0 -151 97.5 -245
t248.5 -94q190 0 346 138q21 18 33 18q37 0 37 -36z" />
    <glyph glyph-name="d" unicode="d" horiz-adv-x="1229" 
d="M1130 42q0 -42 -56 -42h-155v133q-129 -178 -347 -178q-176 0 -299.5 122t-123.5 298q0 175 123.5 297t299.5 122q217 0 346 -177l1 547h-71q-56 0 -56 43q0 42 56 42l155 -1v-1163h71q56 0 56 -43zM920 375q0 143 -102 243t-245 100q-144 0 -246 -99.5t-102 -243.5
t101.5 -243.5t246.5 -99.5q144 0 245.5 99.5t101.5 243.5z" />
    <glyph glyph-name="e" unicode="e" horiz-adv-x="1150" 
d="M1001 125q0 -55 -168 -115q-111 -39 -227 -39q-190 0 -323 124t-133 313q0 173 127 289q124 113 298 113q190 0 308 -123t116 -313h-772q20 -150 123.5 -238.5t255.5 -88.5q187 0 329 102q19 14 30 14q36 0 36 -38zM923 450q-23 128 -120 205.5t-228 77.5
q-132 0 -228 -77t-119 -206h695z" />
    <glyph glyph-name="f" unicode="f" horiz-adv-x="1180" 
d="M1030 1175q0 -41 -44 -41q-42 0 -126 18.5t-127 18.5q-140 0 -199 -52q-50 -43 -59 -142q0 -6 -2 -215h182q56 0 56 -42q0 -43 -56 -43h-182l1 -593h71q56 0 56 -43q0 -42 -56 -42h-226q-56 0 -56 42q0 43 56 43h71l-2 593h-182q-56 0 -56 43q0 42 56 42h182l2 231
q1 134 114 204q95 60 238 60q34 0 146 -19q120 -21 131 -33.5t11 -29.5z" />
    <glyph glyph-name="g" unicode="g" horiz-adv-x="1300" 
d="M1127 720q0 -43 -56 -43h-71l1 -835q0 -136 -102 -232t-239 -96h-238q-56 0 -56 42q0 43 56 43l241 -1q154 -1 232 149q22 41 22 107l2 289q-130 -175 -345 -175q-176 0 -300 121.5t-124 297.5t124 298t300 122q212 0 342 -173v128h155q56 0 56 -42zM921 387
q0 144 -101.5 243.5t-246.5 99.5q-144 0 -245.5 -99.5t-101.5 -243.5q0 -143 102 -243t245 -100q144 0 246 99.5t102 243.5z" />
    <glyph glyph-name="h" unicode="h" horiz-adv-x="1284" 
d="M1134 41q0 -42 -56 -42h-226q-56 0 -56 42q0 43 56 43h71l-1 385q0 102 -75 160q-68 53 -173 53q-97 0 -177 -60q-38 -29 -135 -136v-402h71q56 0 56 -43q0 -42 -56 -42h-226q-56 0 -56 42q0 43 56 43h71v1086h-71q-56 0 -56 43q0 42 56 42h155v-647q145 158 318 158
q134 0 227 -77q100 -82 100 -214v-391h71q56 0 56 -43z" />
    <glyph glyph-name="i" unicode="i" horiz-adv-x="638" 
d="M362 962h-124v217h124v-217zM278 84v593h-71q-56 0 -56 43q0 42 56 42h155v-678h-84zM435 84q56 0 56 -43q0 -42 -56 -42h-226q-56 0 -56 42q0 43 56 43h226z" />
    <glyph glyph-name="j" unicode="j" horiz-adv-x="944" 
d="M794 962h-124v217h124v-217zM794 -159q0 -144 -88.5 -235.5t-232.5 -91.5h-267q-56 0 -56 42q0 43 56 43l265 -1q106 0 172.5 68.5t66.5 174.5v836h-71q-56 0 -56 43q0 42 56 42h155v-921z" />
    <glyph glyph-name="k" unicode="k" horiz-adv-x="1214" 
d="M1065 41q0 -42 -56 -42h-258q-56 0 -56 42q0 43 56 43h71l-361 371l-96 -81l1 -290h71q56 0 56 -43q0 -42 -56 -42h-228q-56 0 -56 42q0 43 56 43h71l1 1086h-71q-56 0 -56 43q0 42 56 42h155v-774l357 300h-71q-56 0 -56 43q0 42 56 42h271q56 0 56 -42q0 -43 -56 -43
h-71l-328 -274l415 -423h71q56 0 56 -43z" />
    <glyph glyph-name="l" unicode="l" horiz-adv-x="642" 
d="M491 41q0 -42 -56 -42h-226q-56 0 -56 42q0 43 56 43h71v1086h-71q-56 0 -56 43q0 42 56 42h155v-1171h71q56 0 56 -43z" />
    <glyph glyph-name="m" unicode="m" horiz-adv-x="1878" 
d="M1728 41q0 -42 -56 -42h-226q-56 0 -56 42q0 43 56 43h71l-1 411q0 98 -72 157q-67 55 -167 55q-159 0 -301 -157q4 -20 4 -41l1 -425h71q56 0 56 -43q0 -42 -56 -42h-226q-56 0 -56 42q0 43 56 43h71l-1 411q0 98 -72 157q-67 55 -167 55q-108 0 -174 -57
q-8 -7 -124 -143l1 -423h71q56 0 56 -43q0 -42 -56 -42h-226q-56 0 -56 42q0 43 56 43h71l-1 593h-71q-56 0 -56 43q0 42 56 42h155v-127q94 95 129 117q65 40 170 40q194 0 285 -153q153 153 335 153q128 0 222 -76q100 -81 100 -207l1 -425h71q56 0 56 -43z" />
    <glyph glyph-name="n" unicode="n" horiz-adv-x="1282" 
d="M1132 41q0 -42 -56 -42h-226q-56 0 -56 42q0 43 56 43h71l-1 411q0 98 -72 157q-67 55 -167 55q-102 0 -181 -59q-46 -34 -137 -141l1 -423h71q56 0 56 -43q0 -42 -56 -42h-226q-56 0 -56 42q0 43 56 43h71l-1 593h-71q-56 0 -56 43q0 42 56 42h155v-127q155 157 319 157
q128 0 222 -76q100 -81 100 -207l1 -425h71q56 0 56 -43z" />
    <glyph glyph-name="o" unicode="o" horiz-adv-x="1146" 
d="M997 387q0 -175 -123.5 -297t-299.5 -122t-300 121.5t-124 297.5t124 298t300 122t299.5 -122t123.5 -298zM921 387q0 144 -101.5 243.5t-246.5 99.5q-144 0 -245.5 -99.5t-101.5 -243.5q0 -143 102 -243t245 -100q144 0 246 99.5t102 243.5z" />
    <glyph glyph-name="p" unicode="p" horiz-adv-x="1229" 
d="M1127 387q0 -175 -123.5 -297t-299.5 -122q-217 0 -346 177l-1 -547q83 0 77 1q50 -6 50 -43q0 -42 -56 -42h-225q-57 0 -57 42q0 37 50 43q-6 -1 77 -1v1079h-71q-56 0 -56 43q0 42 56 42h155v-133q129 178 347 178q176 0 299.5 -122t123.5 -298zM1051 387
q0 144 -101.5 243.5t-246.5 99.5q-144 0 -245.5 -99.5t-101.5 -243.5q0 -143 102 -243t245 -100q144 0 246 99.5t102 243.5z" />
    <glyph glyph-name="q" unicode="q" horiz-adv-x="1229" 
d="M1127 -444q0 -42 -57 -42h-225q-56 0 -56 42q0 37 51 43q-7 -1 76 -1v547q-130 -177 -347 -177q-175 0 -299 122t-124 297q0 176 123.5 298t299.5 122q218 0 347 -178v133h155q56 0 56 -42q0 -37 -50 -44q6 1 -77 1v-1079q83 0 77 1q50 -6 50 -43zM918 387
q0 144 -102 243.5t-246 99.5t-245.5 -99.5t-101.5 -243.5t101.5 -243.5t245.5 -99.5t246 100t102 243z" />
    <glyph glyph-name="r" unicode="r" horiz-adv-x="1112" 
d="M961 656q0 -44 -44 -44q-15 0 -63 43.5t-92 43.5q-81 0 -216 -101q-51 -38 -185 -158v-357q84 0 76 1q51 -6 51 -43q0 -42 -56 -42h-225q-57 0 -57 42q0 37 51 43q-8 -1 76 -1v594q-83 0 -77 -1q-50 6 -50 44q0 42 56 42h155v-212q121 109 181 150q120 83 215 83
q51 0 124 -40q80 -44 80 -87z" />
    <glyph glyph-name="s" unicode="s" horiz-adv-x="1034" 
d="M886 215q0 -126 -127 -193q-102 -54 -239 -54q-180 0 -294 91q0 -62 -38 -62t-38 51v156q0 51 38 51q29 0 39 -43q14 -60 20 -68q72 -101 270 -101q103 0 185 35q108 47 108 137q0 109 -161 146q-150 27 -299 54q-161 46 -161 179q0 107 114 166q91 46 210 46
q157 0 255 -77q0 50 38 50q39 0 39 -51v-130q0 -51 -39 -51q-27 0 -38 45q-15 58 -56 87q-72 50 -196 50q-84 0 -155 -28q-95 -38 -95 -110q0 -80 118 -109l246 -40q154 -30 213 -106q43 -56 43 -121z" />
    <glyph glyph-name="t" unicode="t" horiz-adv-x="1101" 
d="M1023 105q0 -49 -128 -99q-99 -39 -187 -39q-125 0 -209 64q-92 70 -92 191l-1 455h-205q-56 0 -56 43q0 42 56 42h205l1 352q0 56 42 56q43 0 43 -56l-1 -352h406q56 0 56 -43q0 -42 -56 -42h-406l1 -455q0 -82 66 -129q59 -42 144 -42q37 0 134 26q21 5 83 39
q58 31 64 31q40 0 40 -42z" />
    <glyph glyph-name="u" unicode="u" horiz-adv-x="1273" 
d="M1126 42q0 -42 -56 -42h-155v123q-172 -156 -372 -156q-121 0 -195.5 75.5t-74.5 196.5v438q-83 0 -77 -1q-50 6 -50 44q0 42 56 42h155v-523q0 -81 51 -134.5t131 -53.5q205 0 376 188v438q-83 0 -77 -1q-50 6 -50 44q0 42 56 42h155v-678q84 0 76 1q51 -6 51 -43z" />
    <glyph glyph-name="v" unicode="v" horiz-adv-x="1340" 
d="M1179 750q13 -12 13 -30q0 -38 -51 -44q9 1 -76 1zM481 750q13 -12 13 -30q0 -38 -51 -44q9 1 -76 1zM1192 720q0 -38 -51 -44q9 1 -76 1l-321 -677h-142l-325 677q-85 0 -76 -1q-51 6 -51 44q0 42 53 42h238q53 0 53 -42q0 -38 -51 -44q9 1 -76 1l288 -593h37l282 593
q-85 0 -76 -1q-51 6 -51 44q0 42 53 42h239q53 0 53 -42z" />
    <glyph glyph-name="w" unicode="w" horiz-adv-x="1750" 
d="M1589 750q13 -12 13 -30q0 -38 -51 -44q9 1 -76 1zM1602 720q0 -38 -51 -44q9 1 -76 1l-301 -677h-142l-155 365l-153 -365h-142l-305 677q-85 0 -76 -1q-51 6 -51 44q0 42 53 42h238q53 0 53 -42q0 -38 -51 -44q9 1 -76 1l268 -593h37l159 377h92l162 -377h37l262 593
q-85 0 -76 -1q-51 6 -51 44q0 42 53 42h239q53 0 53 -42zM481 750q13 -12 13 -30q0 -38 -51 -44q9 1 -76 1z" />
    <glyph glyph-name="x" unicode="x" horiz-adv-x="1346" 
d="M1141 750q13 -12 13 -30q0 -38 -51 -44q9 1 -76 1zM548 750q13 -12 13 -30q0 -38 -51 -44q9 1 -76 1zM1183 12q13 12 13 30q0 38 -51 44q9 -1 -76 -1zM1196 42q0 -42 -53 -42h-264q-53 0 -53 42q0 38 51 44q-8 -1 75 -1l-275 253l-285 -253q85 0 76 1q51 -6 51 -44
q0 -42 -53 -42h-264q-53 0 -53 42q0 38 51 44q-8 -1 75 -1l345 309l-302 283q-85 0 -76 -1q-51 6 -51 44q0 42 53 42h264q53 0 53 -42q0 -38 -51 -44q9 1 -76 1l243 -228l235 228q-86 0 -76 -1q-52 6 -52 44q0 42 53 42h264q53 0 53 -42q0 -38 -51 -44q9 1 -76 1l-293 -283
l335 -309q85 0 76 1q51 -6 51 -44zM506 12q13 12 13 30q0 38 -51 44q9 -1 -76 -1z" />
    <glyph glyph-name="y" unicode="y" horiz-adv-x="1419" 
d="M1258 750q13 -12 13 -30q0 -38 -51 -44q9 1 -76 1zM485 750q13 -12 13 -30q0 -38 -51 -44q9 1 -76 1zM1271 720q0 -38 -51 -44q9 1 -76 1l-635 -1078q85 0 76 1q51 -6 51 -44q0 -42 -53 -42h-240q-53 0 -53 42q0 38 51 44q-9 -1 76 -1l235 401l-373 677q-85 0 -76 -1
q-51 6 -51 44q0 42 53 42h240q53 0 53 -42q0 -38 -51 -44q9 1 -76 1l336 -585l345 585q-85 0 -76 -1q-51 6 -51 44q0 42 53 42h240q53 0 53 -42zM623 -474q13 12 13 30q0 38 -51 44q9 -1 -76 -1z" />
    <glyph glyph-name="z" unicode="z" horiz-adv-x="1015" 
d="M864 0h-714v75l575 602h-468q0 -85 1 -76q-6 -51 -44 -51q-42 0 -42 53v159h672v-75l-578 -603l513 1q0 85 -1 76q6 51 44 51q42 0 42 -53v-159z" />
    <glyph glyph-name="braceleft" unicode="{" horiz-adv-x="719" 
d="M571 -221q0 -42 -51 -42q-89 0 -147 65q-56 62 -56 153v360q0 72 -43 103q-16 12 -81 33q-43 14 -43 43t43 42q65 20 81 32q43 31 43 104v360q0 90 57.5 154.5t146.5 64.5q50 0 50 -42q0 -27 -44 -41q-64 -20 -81 -32q-44 -32 -44 -104v-360q0 -110 -91 -178
q91 -69 91 -179v-359q0 -72 44 -105q18 -13 81 -32q44 -14 44 -40z" />
    <glyph glyph-name="bar" unicode="|" horiz-adv-x="387" 
d="M235 1199l-1 -1401q0 -56 -42 -56t-42 52v1408q0 54 42 54q43 0 43 -57z" />
    <glyph glyph-name="braceright" unicode="}" horiz-adv-x="719" 
d="M571 494q0 -29 -43 -43q-65 -21 -81 -33q-43 -31 -43 -103v-360q0 -91 -56 -153q-58 -65 -147 -65q-51 0 -51 42q0 26 44 40q63 19 81 32q44 33 44 105v359q0 110 91 179q-91 68 -91 178v360q0 72 -44 104q-17 12 -81 32q-44 14 -44 41q0 42 50 42q89 0 146.5 -64.5
t57.5 -154.5v-360q0 -73 43 -104q16 -12 81 -32q43 -13 43 -42z" />
    <glyph glyph-name="asciitilde" unicode="~" horiz-adv-x="1156" 
d="M1006 849q0 -51 -95 -123.5t-152 -72.5q-81 0 -198.5 109.5t-163.5 109.5q-54 0 -121.5 -75t-85.5 -75q-40 0 -40 40q0 16 26 49q115 145 219 145q82 0 199 -109t159 -109q61 0 127 75.5t86 75.5q40 0 40 -40z" />
    <glyph glyph-name="exclamdown" unicode="&#xa1;" horiz-adv-x="547" 
d="M397 778q0 -44 -30 -74.5t-74 -30.5h-39q-43 0 -73.5 30.5t-30.5 73.5q0 44 30 74t74 30h39q43 0 73.5 -30t30.5 -73zM355 -306q1 -34 -22.5 -57t-58.5 -23q-82 0 -82 82l2 33l37 645q3 58 42 58q40 0 43 -58z" />
    <glyph glyph-name="cent" unicode="&#xa2;" horiz-adv-x="1038" 
d="M886 404q0 -54 -130 -101q-104 -38 -179 -42v-207q0 -56 -42 -56t-42 56v207q-148 18 -245.5 126t-97.5 257q0 155 97 257q89 93 246 127v250q0 56 42 56t42 -56v-247q128 -4 218 -75q10 34 41 34q43 0 43 -51v-127q0 -57 -42 -57q-25 0 -44 53q-24 68 -66 99
q-61 43 -170 43q-139 0 -229 -82q-94 -86 -94 -223q0 -133 90 -218.5t224 -85.5q93 0 200.5 52t97.5 52q40 0 40 -41z" />
    <glyph glyph-name="sterling" unicode="&#xa3;" horiz-adv-x="1198" 
d="M1050 196q0 -77 -48 -134q-51 -60 -127 -60h-669q-56 0 -56 42q0 28 45 41q59 18 81 40q52 53 83 154q28 89 28 174q0 67 -12 116h-169q-56 0 -56 42t56 42h148q-57 177 -57 253q0 122 86 210t208 88q105 0 187 -67t82 -107q0 -39 -42 -39q-6 0 -75 64t-149 64
q-88 0 -150 -62.5t-62 -150.5q0 -46 58 -253h205q56 0 56 -42t-56 -42h-186q10 -62 10 -121q0 -212 -118 -362h519q53 0 75 40q2 5 22 75q11 40 40 40q43 0 43 -45z" />
    <glyph glyph-name="currency" unicode="&#xa4;" horiz-adv-x="1105" 
d="M966 241q0 -42 -43 -42q-21 0 -82 61l-72 76q-96 -72 -211 -72t-210 72q-36 -38 -73 -77q-60 -60 -82 -60q-43 0 -43 43q0 22 61 82q39 36 77 72q-74 97 -74 212t72 211l-76 72q-60 60 -60 82q0 42 43 42q21 0 81 -60l72 -76q91 73 213 73q120 0 211 -73l72 76
q60 60 82 60q42 0 42 -43q0 -22 -60 -82q-38 -35 -76 -71q72 -95 72 -210q0 -119 -73 -213l76 -72q61 -61 61 -83zM818 608q0 109 -75.5 184.5t-184.5 75.5q-108 0 -183.5 -76t-75.5 -184t75.5 -183.5t183.5 -75.5t184 75.5t76 183.5z" />
    <glyph glyph-name="yen" unicode="&#xa5;" horiz-adv-x="1371" 
d="M1221 1128q0 -43 -56 -43h-71l-361 -555h53q53 0 53 -43q0 -42 -53 -42h-55v-115h55q53 0 53 -43q0 -42 -53 -42h-55v-162h71q56 0 56 -43q0 -42 -56 -42h-227q-56 0 -56 42q0 43 56 43h71v163h-73q-53 0 -53 43q0 42 53 42h73v115h-73q-53 0 -53 43q0 42 53 42h71
l-367 554h-71q-56 0 -56 43q0 42 56 42h246q56 0 56 -42q0 -43 -56 -43h-71l308 -473l301 473h-71q-56 0 -56 43q0 42 56 42h246q56 0 56 -42z" />
    <glyph glyph-name="brokenbar" unicode="&#xa6;" horiz-adv-x="384" 
d="M235 1135l-1 -376v-72q-7 -45 -42 -45q-42 0 -42 80v450q0 80 42 80q35 0 42 -45q1 -5 1 -72zM235 239l-1 -385v-71q-7 -45 -42 -45q-42 0 -42 79v450q0 80 42 80q35 0 42 -41q1 -7 1 -67z" />
    <glyph glyph-name="section" unicode="&#xa7;" horiz-adv-x="1229" 
d="M1085 384q0 -82 -75 -126q-62 -37 -149 -38q34 -53 34 -107q0 -107 -75 -175t-182 -68h-406v219q0 40 30 40q31 0 31 -40v-158h344q79 0 137 47q61 51 61 129q0 95 -179 210q-167 100 -334 199q-179 120 -179 227q0 80 77 124q61 35 149 40q-34 51 -34 99q0 101 73 175
t174 74h415v-217q0 -40 -29 -40q-31 0 -31 40v156h-350q-74 0 -133 -53.5t-59 -126.5q0 -95 179 -206q166 -96 332 -193q179 -118 179 -231zM1025 382q0 79 -153 182q-25 16 -213 122q-160 90 -242 163q-66 -9 -131 -18q-83 -21 -83 -92q0 -60 133 -156q70 -51 268 -168
q169 -100 210 -140q61 10 121 20q90 17 90 87z" />
    <glyph glyph-name="dieresis" unicode="&#xa8;" horiz-adv-x="892" 
d="M742 1143q0 -34 -24 -57.5t-58 -23.5t-57.5 23.5t-23.5 57.5t23.5 58t57.5 24t58 -24t24 -58zM313 1143q0 -34 -24 -57.5t-58 -23.5q-33 0 -57 24t-24 57q0 34 23.5 58t57.5 24t58 -24t24 -58z" />
    <glyph glyph-name="copyright" unicode="&#xa9;" horiz-adv-x="1523" 
d="M1373 589q0 -255 -178.5 -433t-433.5 -178t-433 178t-178 433t178 433.5t433 178.5q256 0 434 -178t178 -434zM1305 589q0 228 -158 386t-386 158q-227 0 -385.5 -158.5t-158.5 -385.5t158.5 -385t385.5 -158t385.5 158t158.5 385zM989 415q0 -11 -21 -35
q-83 -93 -196 -93q-122 0 -210 110q-59 74 -59 159v85q0 105 72.5 183t176.5 78t179 -71q0 58 21 58t21 -28v-117q0 -28 -21 -28q-8 0 -14 6l-10 35q-9 32 -42 59q-58 44 -132 44q-90 0 -149.5 -67.5t-59.5 -157.5v-73q0 -93 66.5 -163t159.5 -70q73 0 198 105q20 0 20 -19z
" />
    <glyph glyph-name="ordfeminine" unicode="&#xaa;" horiz-adv-x="950" 
d="M804 783q0 -39 -50 -39h-141v60q-115 -80 -240 -80q-90 0 -151 40q-72 48 -72 133q0 101 104 154q82 41 193 41q70 0 166 -16v66q0 89 -154 89q-38 0 -110.5 -20t-94.5 -20q-39 0 -39 39q0 34 106 59q84 19 141 19q87 0 153 -38q79 -47 79 -128v-321h66q44 -6 44 -38z
M613 903l-1 95q-64 17 -157 17q-75 0 -138 -23q-86 -32 -86 -95q0 -96 139 -96q127 0 243 102z" />
    <glyph glyph-name="guillemotleft" unicode="&#xab;" horiz-adv-x="1229" 
d="M1102 43q0 -42 -42 -42q-19 0 -44 23l-448 410l448 410q26 24 44 24q42 0 42 -43q0 -16 -22 -41l-313 -350l313 -349q22 -25 22 -42zM633 43q0 -42 -42 -42q-19 0 -44 23l-448 410l448 410q26 24 44 24q42 0 42 -43q0 -15 -23 -41l-313 -350l313 -349q23 -26 23 -42z" />
    <glyph glyph-name="logicalnot" unicode="&#xac;" horiz-adv-x="1359" 
d="M1211 763v-507q0 -53 -42 -53q-43 0 -43 56v420h-920q-56 0 -56 42t53 42h1008z" />
    <glyph glyph-name="registered" unicode="&#xae;" horiz-adv-x="1523" 
d="M1373 582q0 -255 -178.5 -433t-433.5 -178t-433 178t-178 433t178 433.5t433 178.5q256 0 434 -178t178 -434zM1305 582q0 228 -158 386t-386 158q-227 0 -385.5 -158.5t-158.5 -385.5t158.5 -385t385.5 -158t385.5 158t158.5 385zM1055 321q0 -22 -28 -21h-69l-169 261
h-144v-219h36q28 0 28 -21t-28 -21h-113q-28 0 -28 21t28 21h35v501h-35q-28 0 -28 22q0 21 28 21l233 -1q71 0 126 -45q60 -47 60 -117q0 -102 -145 -151l150 -230h35q28 0 28 -21zM945 725q0 50 -49 86q-45 32 -96 32h-155v-240h115q63 0 118 29q67 35 67 93z" />
    <glyph glyph-name="degree" unicode="&#xb0;" horiz-adv-x="570" 
d="M422 1255q0 -56 -40 -94.5t-96 -38.5t-96 38.5t-40 94.5t40 95t96 39t96 -39t40 -95zM377 1255q0 37 -27 63t-64 26t-64 -26t-27 -63t27 -62.5t64 -25.5t64 25.5t27 62.5z" />
    <glyph glyph-name="plusminus" unicode="&#xb1;" horiz-adv-x="1229" 
d="M1085 718q0 -42 -56 -42h-372v-420q0 -56 -43 -56q-42 0 -42 56v420h-372q-56 0 -56 42t56 42h372v418q0 56 43 56q42 0 42 -56v-418h372q56 0 56 -42zM1085 42q0 -42 -78 -42h-785q-78 0 -78 42q0 36 45 42l72 1l707 -1h72q45 -6 45 -42z" />
    <glyph glyph-name="twosuperior" unicode="&#xb2;" horiz-adv-x="800" 
d="M592 529h-386v62q79 71 181 175q137 141 154 186q8 20 8 40q0 57 -45 97t-103 40q-120 0 -153 -110q-2 -6 -7 -15q-6 -5 -14 -5q-20 0 -20 19q0 24 26 65q56 88 167 88q75 0 133.5 -52t58.5 -126q0 -29 -10 -53q-20 -52 -153 -190q-105 -110 -182 -179h303q0 44 21 44
q20 0 23 -37q-2 27 -2 -49z" />
    <glyph glyph-name="threesuperior" unicode="&#xb3;" horiz-adv-x="800" 
d="M601 705q0 -84 -67 -139q-63 -52 -147 -52q-54 0 -112 23q-74 29 -74 59q0 20 20 20q-5 0 52 -30t115 -30q65 0 116 40q55 43 55 107q0 67 -61 111q-56 40 -125 40q-28 0 -28 21t61 21q52 0 89 30q41 33 41 84q0 54 -44 88q-40 31 -95 31q-90 0 -138 -56q-13 -14 -22 -14
q-21 0 -21 19q0 20 44 51q60 42 137 42q74 0 126 -43q56 -46 56 -118q0 -94 -97 -140q119 -53 119 -165z" />
    <glyph glyph-name="acute" unicode="&#xb4;" horiz-adv-x="705" 
d="M492 1278q0 -19 -25 -41l-237 -204q-23 -20 -38 -20q-42 0 -42 43q0 19 25 41l236 204q23 20 39 20q42 0 42 -43z" />
    <glyph glyph-name="paragraph" unicode="&#xb6;" horiz-adv-x="1229" 
d="M1062 -112q0 -42 -56 -42h-483q-56 0 -56 42q0 43 56 43h71l3 633q-294 20 -402 196q-22 36 -25 95q1 -16 1 99q0 144 153 230q126 71 282 71l398 -1q17 -2 43 -12q13 -12 13 -30q0 -43 -56 -43h-71l2 -1238h71q56 0 56 -43zM597 627l-1 542q-122 -11 -201 -56
q-103 -59 -103 -164v-77q0 -107 103 -176q86 -59 202 -69zM852 1169h-176l2 -1238h173z" />
    <glyph glyph-name="cedilla" unicode="&#xb8;" horiz-adv-x="605" 
d="M472 -220q0 -57 -45 -89q-40 -28 -99 -28q-44 0 -104 19q-74 23 -74 56q0 30 30 30q5 0 57 -22.5t91 -22.5q83 0 83 59q0 51 -117 51v153q0 40 30 40q31 0 33 -58q-3 76 -3 -78q118 -17 118 -110z" />
    <glyph glyph-name="onesuperior" unicode="&#xb9;" horiz-adv-x="800" 
d="M490 556q0 -21 -28 -21h-113q-28 0 -28 21t28 21h35v536q-11 -3 -24 -12q-8 -5 -20 -5q-20 0 -20 21q0 15 21 23l85 31v-594h36q28 0 28 -21z" />
    <glyph glyph-name="ordmasculine" unicode="&#xba;" horiz-adv-x="912" 
d="M786 1017q0 -126 -97 -211q-93 -81 -221 -81q-127 0 -221 81q-97 85 -97 211t97 211q93 81 221 81t221 -81q97 -85 97 -211zM705 1017q0 94 -73 156q-69 59 -164 59t-164 -59q-73 -63 -73 -156t73 -156q69 -59 164 -59t164 59q73 63 73 156z" />
    <glyph glyph-name="guillemotright" unicode="&#xbb;" horiz-adv-x="1229" 
d="M1130 434l-448 -410q-25 -23 -44 -23q-42 0 -42 42q0 17 22 42l313 349l-313 350q-22 25 -22 42q0 42 42 42q18 0 44 -24zM661 434l-449 -410q-25 -23 -43 -23q-42 0 -42 42q0 17 22 42l313 349l-313 350q-22 25 -22 42q0 42 42 42q17 0 43 -24z" />
    <glyph glyph-name="onequarter" unicode="&#xbc;" horiz-adv-x="1280" 
d="M1013 1149q12 -20 -5 -53l-498 -968q-11 -23 -23 -30q-36 -21 -57 16q-12 20 5 53l498 968q11 23 23 30q36 21 57 -16zM513 556q0 -21 -28 -21h-113q-28 0 -28 21t28 21h35v536q-11 -3 -24 -12q-8 -5 -20 -5q-20 0 -20 21q0 15 21 23l85 31v-594h36q28 0 28 -21zM1130 21
q0 -21 -28 -21h-113q-28 0 -28 21q0 22 28 22h36l-1 133h-278v49l233 403h88v-410q63 0 63 -21t-63 -21v-133h35q28 0 28 -22zM1024 218v368h-22l-212 -368h234z" />
    <glyph glyph-name="onehalf" unicode="&#xbd;" horiz-adv-x="1280" 
d="M973 1149q12 -20 -5 -53l-498 -968q-11 -23 -23 -30q-36 -21 -57 16q-12 20 5 53l498 968q11 23 23 30q36 21 57 -16zM513 556q0 -21 -28 -21h-113q-28 0 -28 21t28 21h35v536q-11 -3 -24 -12q-8 -5 -20 -5q-20 0 -20 21q0 15 21 23l85 31v-594h36q28 0 28 -21zM1129 0
h-386v62q79 71 181 176q137 140 154 185q8 20 8 40q0 58 -45 97.5t-103 39.5q-120 0 -153 -109q-2 -6 -7 -16q-6 -5 -14 -5q-20 0 -20 20q0 24 26 65q56 88 167 88q75 0 133.5 -52.5t58.5 -125.5q0 -29 -10 -54q-20 -52 -153 -190q-105 -109 -182 -179h303q0 45 21 45
q20 0 23 -37q-2 26 -2 -50z" />
    <glyph glyph-name="threequarters" unicode="&#xbe;" horiz-adv-x="1280" 
d="M1013 1149q12 -20 -5 -53l-498 -968q-11 -23 -23 -30q-36 -21 -57 16q-12 20 5 53l498 968q11 23 23 30q36 21 57 -16zM1130 21q0 -21 -28 -21h-113q-28 0 -28 21q0 22 28 22h36l-1 133h-278v49l233 403h88v-410q63 0 63 -21t-63 -21v-133h35q28 0 28 -22zM601 705
q0 -84 -67 -139q-63 -52 -147 -52q-54 0 -112 23q-74 29 -74 59q0 20 20 20q-5 0 52 -30t115 -30q65 0 116 40q55 43 55 107q0 67 -61 111q-56 40 -125 40q-28 0 -28 21t61 21q52 0 89 30q41 33 41 84q0 54 -44 88q-40 31 -95 31q-90 0 -138 -56q-13 -14 -22 -14
q-21 0 -21 19q0 20 44 51q60 42 137 42q74 0 126 -43q56 -46 56 -118q0 -94 -97 -140q119 -53 119 -165zM1024 218v368h-22l-212 -368h234z" />
    <glyph glyph-name="questiondown" unicode="&#xbf;" horiz-adv-x="1029" 
d="M683 779q0 -44 -30 -74t-74 -30h-84q-43 0 -73.5 30t-30.5 73q0 44 30 74.5t74 30.5h84q43 0 73.5 -30.5t30.5 -73.5zM878 -295q-123 -55 -173 -71q-92 -30 -185 -30q-161 0 -264 96q-106 99 -106 258q0 127 115 214q63 48 228 118q0 100 -2 85q6 57 45 57q42 0 42 -57
v-141q-148 -54 -216 -96q-128 -80 -128 -179q0 -120 88 -197q83 -74 205 -74q118 0 267 71v76q6 49 42 49q42 0 42 -57v-122z" />
    <glyph glyph-name="Agrave" unicode="&#xc0;" horiz-adv-x="1504" 
d="M790 1268q0 -43 -43 -43q-15 0 -38 20l-236 204q-25 22 -25 41q0 43 43 43q25 0 159 -120q125 -110 137 -129q3 -9 3 -16zM1356 45q0 -42 -56 -42h-226q-56 0 -56 42q0 43 56 43h71l-115 307h-552l-107 -307h61q56 0 56 -43q0 -42 -56 -42h-226q-56 0 -56 42q0 43 56 43
h71l406 1087l140 -1l406 -1086h71q56 0 56 -43zM998 479l-232 611h-31l-225 -611h488z" />
    <glyph glyph-name="Aacute" unicode="&#xc1;" horiz-adv-x="1504" 
d="M1050 1490q0 -19 -25 -41l-236 -204q-23 -20 -38 -20q-43 0 -43 43q0 7 3 16q12 19 137 129q134 120 159 120q43 0 43 -43zM1356 45q0 -42 -56 -42h-226q-56 0 -56 42q0 43 56 43h71l-115 307h-552l-107 -307h61q56 0 56 -43q0 -42 -56 -42h-226q-56 0 -56 42q0 43 56 43
h71l406 1087l140 -1l406 -1086h71q56 0 56 -43zM998 479l-232 611h-31l-225 -611h488z" />
    <glyph glyph-name="Acircumflex" unicode="&#xc2;" horiz-adv-x="1504" 
d="M1041 1266q0 -42 -43 -42q-21 0 -132 87q-62 49 -124 99q-62 -50 -123 -100q-111 -86 -133 -86q-42 0 -42 42q0 21 28 42l270 206l271 -206q28 -21 28 -42zM1356 45q0 -42 -56 -42h-226q-56 0 -56 42q0 43 56 43h71l-115 307h-552l-107 -307h61q56 0 56 -43
q0 -42 -56 -42h-226q-56 0 -56 42q0 43 56 43h71l406 1087l140 -1l406 -1086h71q56 0 56 -43zM998 479l-232 611h-31l-225 -611h488z" />
    <glyph glyph-name="Atilde" unicode="&#xc3;" horiz-adv-x="1504" 
d="M1070 1351q0 -40 -74 -85q-68 -42 -113 -42q-56 0 -146 61t-117 61q-34 0 -82.5 -40.5t-64.5 -40.5q-41 0 -41 40q0 38 74 83q69 42 113 42q54 0 143.5 -60.5t120.5 -60.5q30 0 80.5 40.5t64.5 40.5q42 0 42 -39zM1356 45q0 -42 -56 -42h-226q-56 0 -56 42q0 43 56 43h71
l-115 307h-552l-107 -307h61q56 0 56 -43q0 -42 -56 -42h-226q-56 0 -56 42q0 43 56 43h71l406 1087l140 -1l406 -1086h71q56 0 56 -43zM998 479l-232 611h-31l-225 -611h488z" />
    <glyph glyph-name="Adieresis" unicode="&#xc4;" horiz-adv-x="1504" 
d="M980 1301q0 -32 -22.5 -54.5t-54.5 -22.5t-54.5 22.5t-22.5 54.5t22.5 54.5t54.5 22.5t54.5 -23t22.5 -54zM680 1301q0 -32 -22.5 -54.5t-54.5 -22.5t-54.5 22.5t-22.5 54.5t22.5 54.5t54.5 22.5t54.5 -23t22.5 -54zM1356 45q0 -42 -56 -42h-226q-56 0 -56 42q0 43 56 43
h71l-115 307h-552l-107 -307h61q56 0 56 -43q0 -42 -56 -42h-226q-56 0 -56 42q0 43 56 43h71l406 1087l140 -1l406 -1086h71q56 0 56 -43zM998 479l-232 611h-31l-225 -611h488z" />
    <glyph glyph-name="Aring" unicode="&#xc5;" horiz-adv-x="1504" 
d="M889 1359q0 -56 -40 -95t-96 -39t-96 39t-40 95q0 55 40 94t96 39t96 -39t40 -94zM1356 45q0 -42 -56 -42h-226q-56 0 -56 42q0 43 56 43h71l-115 307h-552l-107 -307h61q56 0 56 -43q0 -42 -56 -42h-226q-56 0 -56 42q0 43 56 43h71l406 1087l140 -1l406 -1086h71
q56 0 56 -43zM844 1359q0 37 -27 62.5t-64 25.5t-64 -25.5t-27 -62.5t27 -63t64 -26t64 25.5t27 63.5zM998 479l-232 611h-31l-225 -611h488z" />
    <glyph glyph-name="AE" unicode="&#xc6;" horiz-adv-x="1620" 
d="M1470 -1l-805 -1q-17 2 -43 12q-13 12 -13 30q0 43 56 43h71v308h-258l-107 -307h61q56 0 56 -43q0 -42 -56 -42h-226q-56 0 -56 42q0 43 56 43h71l369 1003q-37 6 -37 41q0 42 56 42l761 -1v-155q0 -56 -42 -56q-44 0 -43 56l1 71h-522v-437h251v71q0 56 43 56
q42 0 42 -56v-226q0 -56 -42 -56q-43 0 -43 56v71h-251v-481h566l-1 71q-1 56 43 56q42 0 42 -56v-155zM736 475v607l-226 -607h226z" />
    <glyph glyph-name="Ccedilla" unicode="&#xc7;" horiz-adv-x="1229" 
d="M1123 220q0 -22 -43 -70q-154 -173 -367 -184q0 -19 -4 -74q118 -17 118 -110q0 -57 -45 -89q-40 -28 -99 -28q-44 0 -104 19q-74 23 -74 56q0 30 30 30q5 0 57 -22.5t91 -22.5q83 0 83 59q0 51 -117 51v131q-217 14 -380 219q-119 148 -119 317v171q0 211 145 366.5
t354 155.5q208 0 358 -142v71q7 44 42 44q42 0 42 -56v-233q0 -57 -42 -57q-17 0 -28 12l-20 71q-17 65 -85 117q-116 89 -264 89q-178 0 -300 -137q-118 -133 -118 -313v-147q0 -186 133 -324q134 -141 319 -141q108 0 202 54q59 34 127 102q55 54 68 54q40 0 40 -39z" />
    <glyph glyph-name="Egrave" unicode="&#xc8;" horiz-adv-x="1241" 
d="M671 1265q0 -43 -43 -43q-15 0 -38 20l-236 204q-25 22 -25 41q0 43 43 43q25 0 159 -120q125 -110 137 -129q3 -9 3 -16zM1091 0l-885 -1q-17 2 -43 12q-13 12 -13 30q0 43 56 43h71v1002h-71q-56 0 -56 43q0 42 56 42l841 -1v-155q0 -56 -42 -56q-44 0 -43 56l1 71
h-602v-437h301v71q0 56 43 56q42 0 42 -56v-226q0 -56 -42 -56q-43 0 -43 56v71h-301v-481h646l-1 71q-1 56 43 56q42 0 42 -56v-155z" />
    <glyph glyph-name="Eacute" unicode="&#xc9;" horiz-adv-x="1241" 
d="M921 1487q0 -19 -25 -41l-236 -204q-23 -20 -38 -20q-43 0 -43 43q0 7 3 16q12 19 137 129q134 120 159 120q43 0 43 -43zM1091 0l-885 -1q-17 2 -43 12q-13 12 -13 30q0 43 56 43h71v1002h-71q-56 0 -56 43q0 42 56 42l841 -1v-155q0 -56 -42 -56q-44 0 -43 56l1 71
h-602v-437h301v71q0 56 43 56q42 0 42 -56v-226q0 -56 -42 -56q-43 0 -43 56v71h-301v-481h646l-1 71q-1 56 43 56q42 0 42 -56v-155z" />
    <glyph glyph-name="Ecircumflex" unicode="&#xca;" horiz-adv-x="1241" 
d="M921 1262q0 -42 -43 -42q-21 0 -132 87q-62 49 -124 99q-62 -50 -123 -100q-111 -86 -133 -86q-42 0 -42 42q0 21 28 42l270 206l271 -206q28 -21 28 -42zM1091 0l-885 -1q-17 2 -43 12q-13 12 -13 30q0 43 56 43h71v1002h-71q-56 0 -56 43q0 42 56 42l841 -1v-155
q0 -56 -42 -56q-44 0 -43 56l1 71h-602v-437h301v71q0 56 43 56q42 0 42 -56v-226q0 -56 -42 -56q-43 0 -43 56v71h-301v-481h646l-1 71q-1 56 43 56q42 0 42 -56v-155z" />
    <glyph glyph-name="Edieresis" unicode="&#xcb;" horiz-adv-x="1241" 
d="M862 1297q0 -32 -22.5 -54.5t-54.5 -22.5t-54.5 22.5t-22.5 54.5t22.5 54.5t54.5 22.5t54.5 -23t22.5 -54zM562 1297q0 -32 -22.5 -54.5t-54.5 -22.5t-54.5 22.5t-22.5 54.5t22.5 54.5t54.5 22.5t54.5 -23t22.5 -54zM1091 0l-885 -1q-17 2 -43 12q-13 12 -13 30
q0 43 56 43h71v1002h-71q-56 0 -56 43q0 42 56 42l841 -1v-155q0 -56 -42 -56q-44 0 -43 56l1 71h-602v-437h301v71q0 56 43 56q42 0 42 -56v-226q0 -56 -42 -56q-43 0 -43 56v71h-301v-481h646l-1 71q-1 56 43 56q42 0 42 -56v-155z" />
    <glyph glyph-name="Igrave" unicode="&#xcc;" horiz-adv-x="638" 
d="M471 1265q0 -43 -43 -43q-15 0 -38 20l-236 204q-25 22 -25 41q0 43 43 43q25 0 159 -120q125 -110 137 -129q3 -9 3 -16zM488 41q0 -42 -56 -42h-226q-56 0 -56 42q0 43 56 43h71v1002h-71q-56 0 -56 43q0 42 56 42h226q56 0 56 -42q0 -43 -56 -43h-71v-1002h71
q56 0 56 -43z" />
    <glyph glyph-name="Iacute" unicode="&#xcd;" horiz-adv-x="638" 
d="M511 1487q0 -19 -25 -41l-236 -204q-23 -20 -38 -20q-43 0 -43 43q0 7 3 16q12 19 137 129q134 120 159 120q43 0 43 -43zM488 41q0 -42 -56 -42h-226q-56 0 -56 42q0 43 56 43h71v1002h-71q-56 0 -56 43q0 42 56 42h226q56 0 56 -42q0 -43 -56 -43h-71v-1002h71
q56 0 56 -43z" />
    <glyph glyph-name="Icircumflex" unicode="&#xce;" horiz-adv-x="638" 
d="M621 1262q0 -42 -43 -42q-21 0 -132 87q-62 49 -124 99q-62 -50 -123 -100q-111 -86 -133 -86q-42 0 -42 42q0 21 28 42l270 206l271 -206q28 -21 28 -42zM488 41q0 -42 -56 -42h-226q-56 0 -56 42q0 43 56 43h71v1002h-71q-56 0 -56 43q0 42 56 42h226q56 0 56 -42
q0 -43 -56 -43h-71v-1002h71q56 0 56 -43z" />
    <glyph glyph-name="Idieresis" unicode="&#xcf;" horiz-adv-x="638" 
d="M552 1297q0 -32 -22.5 -54.5t-54.5 -22.5t-54.5 22.5t-22.5 54.5t22.5 54.5t54.5 22.5t54.5 -23t22.5 -54zM252 1297q0 -32 -22.5 -54.5t-54.5 -22.5t-54.5 22.5t-22.5 54.5t22.5 54.5t54.5 22.5t54.5 -23t22.5 -54zM488 41q0 -42 -56 -42h-226q-56 0 -56 42q0 43 56 43
h71v1002h-71q-56 0 -56 43q0 42 56 42h226q56 0 56 -42q0 -43 -56 -43h-71v-1002h71q56 0 56 -43z" />
    <glyph glyph-name="Eth" unicode="&#xd0;" horiz-adv-x="1283" 
d="M1134 527q0 -207 -133 -363q-139 -164 -343 -164l-452 -1q-17 2 -43 12q-13 12 -13 30q0 43 56 43h71v459h-71q-56 0 -56 42t56 42h71v457h-71q-56 0 -56 43q0 42 56 42l452 1q316 0 447 -345q29 -76 29 -298zM1050 509v152q0 159 -111 289q-116 136 -273 136h-305v-459
h74q56 0 56 -42t-56 -42h-74v-459h305q155 0 272 136q112 131 112 289z" />
    <glyph glyph-name="Ntilde" unicode="&#xd1;" horiz-adv-x="1364" 
d="M990 1347q0 -40 -74 -85q-68 -42 -113 -42q-56 0 -146 61t-117 61q-34 0 -82.5 -40.5t-64.5 -40.5q-41 0 -41 40q0 38 74 83q69 42 113 42q54 0 143.5 -60.5t120.5 -60.5q30 0 80.5 40.5t64.5 40.5q42 0 42 -39zM1215 1129q0 -43 -56 -43h-71v-1086h-108l-619 1047v-963
h71q56 0 56 -43q0 -42 -56 -42h-226q-56 0 -56 42q0 43 56 43h71v1002h-71q-56 0 -56 43q0 42 56 42l178 -1l620 -1049v965h-71q-56 0 -56 43q0 42 56 42h226q56 0 56 -42z" />
    <glyph glyph-name="Ograve" unicode="&#xd2;" horiz-adv-x="1324" 
d="M701 1295q0 -43 -43 -43q-15 0 -38 20l-236 204q-25 22 -25 41q0 43 43 43q25 0 159 -120q125 -110 137 -129q3 -9 3 -16zM1174 584q0 -240 -133 -418q-147 -197 -379 -197t-379 197q-133 179 -133 418t133 418q147 197 379 197t378 -197q134 -179 134 -418zM1089 584
q0 202 -110 358q-123 173 -317 173t-317 -174q-111 -155 -111 -357q0 -201 111 -357q123 -174 317 -174t317 173q110 155 110 358z" />
    <glyph glyph-name="Oacute" unicode="&#xd3;" horiz-adv-x="1324" 
d="M961 1517q0 -19 -25 -41l-236 -204q-23 -20 -38 -20q-43 0 -43 43q0 7 3 16q12 19 137 129q134 120 159 120q43 0 43 -43zM1174 584q0 -240 -133 -418q-147 -197 -379 -197t-379 197q-133 179 -133 418t133 418q147 197 379 197t378 -197q134 -179 134 -418zM1089 584
q0 202 -110 358q-123 173 -317 173t-317 -174q-111 -155 -111 -357q0 -201 111 -357q123 -174 317 -174t317 173q110 155 110 358z" />
    <glyph glyph-name="Ocircumflex" unicode="&#xd4;" horiz-adv-x="1324" 
d="M951 1282q0 -42 -43 -42q-21 0 -132 87q-62 49 -124 99q-62 -50 -123 -100q-111 -86 -133 -86q-42 0 -42 42q0 21 28 42l270 206l271 -206q28 -21 28 -42zM1174 584q0 -240 -133 -418q-147 -197 -379 -197t-379 197q-133 179 -133 418t133 418q147 197 379 197t378 -197
q134 -179 134 -418zM1089 584q0 202 -110 358q-123 173 -317 173t-317 -174q-111 -155 -111 -357q0 -201 111 -357q123 -174 317 -174t317 173q110 155 110 358z" />
    <glyph glyph-name="Otilde" unicode="&#xd5;" horiz-adv-x="1324" 
d="M990 1367q0 -40 -74 -85q-68 -42 -113 -42q-56 0 -146 61t-117 61q-34 0 -82.5 -40.5t-64.5 -40.5q-41 0 -41 40q0 38 74 83q69 42 113 42q54 0 143.5 -60.5t120.5 -60.5q30 0 80.5 40.5t64.5 40.5q42 0 42 -39zM1174 584q0 -240 -133 -418q-147 -197 -379 -197t-379 197
q-133 179 -133 418t133 418q147 197 379 197t378 -197q134 -179 134 -418zM1089 584q0 202 -110 358q-123 173 -317 173t-317 -174q-111 -155 -111 -357q0 -201 111 -357q123 -174 317 -174t317 173q110 155 110 358z" />
    <glyph glyph-name="Odieresis" unicode="&#xd6;" horiz-adv-x="1324" 
d="M882 1317q0 -32 -22.5 -54.5t-54.5 -22.5t-54.5 22.5t-22.5 54.5t22.5 54.5t54.5 22.5t54.5 -23t22.5 -54zM582 1317q0 -32 -22.5 -54.5t-54.5 -22.5t-54.5 22.5t-22.5 54.5t22.5 54.5t54.5 22.5t54.5 -23t22.5 -54zM1174 584q0 -240 -133 -418q-147 -197 -379 -197
t-379 197q-133 179 -133 418t133 418q147 197 379 197t378 -197q134 -179 134 -418zM1089 584q0 202 -110 358q-123 173 -317 173t-317 -174q-111 -155 -111 -357q0 -201 111 -357q123 -174 317 -174t317 173q110 155 110 358z" />
    <glyph glyph-name="multiply" unicode="&#xd7;" horiz-adv-x="985" 
d="M840 282q0 -43 -43 -43q-16 0 -39 23l-263 263l-263 -263q-22 -22 -39 -22q-43 0 -43 43q0 16 23 39l262 263l-263 263q-22 22 -22 39q0 43 43 43q16 0 39 -23l263 -263l261 262q22 22 40 22q42 0 42 -43q0 -17 -22 -39l-261 -261l263 -263q22 -22 22 -40z" />
    <glyph glyph-name="Oslash" unicode="&#xd8;" horiz-adv-x="1324" 
d="M1195 1208q0 -14 -154 -210q133 -177 133 -417q0 -238 -134 -418q-147 -197 -378 -197q-184 0 -325 137l-78 -106q-65 -82 -90 -82q-43 0 -43 43q0 13 155 210q-131 181 -131 412q0 240 133 419q147 197 379 197q183 0 322 -134q39 53 78 107q65 82 91 82q42 0 42 -43z
M930 994q-121 118 -268 118q-194 0 -317 -174q-111 -156 -111 -357q0 -191 102 -343zM1089 581q0 196 -103 347l-596 -757q121 -121 272 -121q193 0 317 174q110 156 110 357z" />
    <glyph glyph-name="Ugrave" unicode="&#xd9;" horiz-adv-x="1360" 
d="M701 1295q0 -43 -43 -43q-15 0 -38 20l-236 204q-25 22 -25 41q0 43 43 43q25 0 159 -120q125 -110 137 -129q3 -9 3 -16zM1215 1130q0 -43 -56 -43h-71v-702q0 -174 -114 -294q-117 -123 -289 -123q-173 0 -290.5 121.5t-117.5 295.5v702h-71q-56 0 -56 43q0 42 56 42
h226q56 0 56 -42q0 -43 -56 -43h-71v-702q0 -136 92 -233q93 -100 228 -100t229 99t94 234v702h-71q-56 0 -56 43q0 42 56 42h226q56 0 56 -42z" />
    <glyph glyph-name="Uacute" unicode="&#xda;" horiz-adv-x="1360" 
d="M961 1517q0 -19 -25 -41l-236 -204q-23 -20 -38 -20q-43 0 -43 43q0 7 3 16q12 19 137 129q134 120 159 120q43 0 43 -43zM1215 1130q0 -43 -56 -43h-71v-702q0 -174 -114 -294q-117 -123 -289 -123q-173 0 -290.5 121.5t-117.5 295.5v702h-71q-56 0 -56 43q0 42 56 42
h226q56 0 56 -42q0 -43 -56 -43h-71v-702q0 -136 92 -233q93 -100 228 -100t229 99t94 234v702h-71q-56 0 -56 43q0 42 56 42h226q56 0 56 -42z" />
    <glyph glyph-name="Ucircumflex" unicode="&#xdb;" horiz-adv-x="1360" 
d="M951 1282q0 -42 -43 -42q-21 0 -132 87q-62 49 -124 99q-62 -50 -123 -100q-111 -86 -133 -86q-42 0 -42 42q0 21 28 42l270 206l271 -206q28 -21 28 -42zM1215 1130q0 -43 -56 -43h-71v-702q0 -174 -114 -294q-117 -123 -289 -123q-173 0 -290.5 121.5t-117.5 295.5v702
h-71q-56 0 -56 43q0 42 56 42h226q56 0 56 -42q0 -43 -56 -43h-71v-702q0 -136 92 -233q93 -100 228 -100t229 99t94 234v702h-71q-56 0 -56 43q0 42 56 42h226q56 0 56 -42z" />
    <glyph glyph-name="Udieresis" unicode="&#xdc;" horiz-adv-x="1360" 
d="M882 1317q0 -32 -22.5 -54.5t-54.5 -22.5t-54.5 22.5t-22.5 54.5t22.5 54.5t54.5 22.5t54.5 -23t22.5 -54zM582 1317q0 -32 -22.5 -54.5t-54.5 -22.5t-54.5 22.5t-22.5 54.5t22.5 54.5t54.5 22.5t54.5 -23t22.5 -54zM1215 1130q0 -43 -56 -43h-71v-702q0 -174 -114 -294
q-117 -123 -289 -123q-173 0 -290.5 121.5t-117.5 295.5v702h-71q-56 0 -56 43q0 42 56 42h226q56 0 56 -42q0 -43 -56 -43h-71v-702q0 -136 92 -233q93 -100 228 -100t229 99t94 234v702h-71q-56 0 -56 43q0 42 56 42h226q56 0 56 -42z" />
    <glyph glyph-name="Yacute" unicode="&#xdd;" horiz-adv-x="1371" 
d="M961 1517q0 -19 -25 -41l-236 -204q-23 -20 -38 -20q-43 0 -43 43q0 7 3 16q12 19 137 129q134 120 159 120q43 0 43 -43zM1221 1128q0 -43 -56 -43h-71l-363 -558v-444h71q56 0 56 -43q0 -42 -56 -42h-227q-56 0 -56 42q0 43 56 43h71v444l-369 558h-71q-56 0 -56 43
q0 42 56 42h246q56 0 56 -42q0 -43 -56 -43h-71l308 -473l301 473h-71q-56 0 -56 43q0 42 56 42h246q56 0 56 -42z" />
    <glyph glyph-name="Thorn" unicode="&#xde;" horiz-adv-x="1196" 
d="M1045 590q0 -237 -276 -329q-53 -18 -131 -23q-55 -3 -142 -1q-119 4 -134 4v-154h71q56 0 56 -43q0 -42 -56 -42h-227q-56 0 -56 42q0 43 56 43h72l-1 1002h-71q-56 0 -56 43q0 42 56 42h227q56 0 56 -42q0 -43 -56 -43h-71v-157h291q173 0 282.5 -102.5t109.5 -239.5z
M961 590q0 113 -96 188q-88 69 -204 69h-299v-521h268q123 0 221 69q110 77 110 195z" />
    <glyph glyph-name="germandbls" unicode="&#xdf;" horiz-adv-x="1201" 
d="M1051 335q0 -139 -65 -244q-77 -122 -209 -122q-98 0 -160 74q-58 69 -58 169q0 47 42 47q29 0 42 -53q19 -80 31 -100q31 -53 104 -53q91 0 144 99q44 82 44 182q0 153 -110 257.5t-264 104.5q-59 0 -59 43q0 17 13 30q65 17 131 34q115 43 115 154q0 89 -64.5 152
t-154.5 63q-82 0 -144 -48q-67 -52 -67 -132v-906h71q56 0 56 -43q0 -42 -56 -42h-227q-56 0 -56 42q0 43 56 43h71l1 906q0 115 91 192q87 73 204 73q127 0 215 -88t88 -215q0 -125 -120 -207q295 -124 295 -412z" />
    <glyph glyph-name="agrave" unicode="&#xe0;" horiz-adv-x="1146" 
d="M610 1052q0 -43 -43 -43q-15 0 -38 20l-236 204q-25 21 -25 41q0 43 43 43q24 0 159 -120q124 -111 137 -129q3 -9 3 -16zM997 42q0 -42 -56 -42h-147v109q-165 -139 -353 -139q-119 0 -199 58q-91 65 -91 180q0 141 136 215q109 60 261 60q108 0 246 -28v123
q0 81 -80 122q-62 32 -151 32q-57 0 -163.5 -30.5t-121.5 -30.5q-35 0 -35 38q0 14 9 25q17 20 147 48q121 27 168 27q116 0 203 -56q101 -64 101 -175l-1 -493h71q56 0 56 -43zM794 210v167q-103 30 -238 30q-117 0 -209 -42q-120 -54 -120 -157q0 -82 67 -125
q57 -37 144 -37q185 0 356 164z" />
    <glyph glyph-name="aacute" unicode="&#xe1;" horiz-adv-x="1146" 
d="M866 1274q0 -20 -25 -41l-236 -204q-24 -20 -38 -20q-43 0 -43 43q0 7 3 16q12 18 137 129q134 120 159 120q43 0 43 -43zM997 42q0 -42 -56 -42h-147v109q-165 -139 -353 -139q-119 0 -199 58q-91 65 -91 180q0 141 136 215q109 60 261 60q108 0 246 -28v123
q0 81 -80 122q-62 32 -151 32q-57 0 -163.5 -30.5t-121.5 -30.5q-35 0 -35 38q0 14 9 25q17 20 147 48q121 27 168 27q116 0 203 -56q101 -64 101 -175l-1 -493h71q56 0 56 -43zM794 210v167q-103 30 -238 30q-117 0 -209 -42q-120 -54 -120 -157q0 -82 67 -125
q57 -37 144 -37q185 0 356 164z" />
    <glyph glyph-name="acircumflex" unicode="&#xe2;" horiz-adv-x="1146" 
d="M860 1051q0 -42 -43 -42q-21 0 -132 86l-124 100l-124 -100q-110 -86 -132 -86q-42 0 -42 42q0 20 28 42l270 206l271 -206q28 -22 28 -42zM997 42q0 -42 -56 -42h-147v109q-165 -139 -353 -139q-119 0 -199 58q-91 65 -91 180q0 141 136 215q109 60 261 60
q108 0 246 -28v123q0 81 -80 122q-62 32 -151 32q-57 0 -163.5 -30.5t-121.5 -30.5q-35 0 -35 38q0 14 9 25q17 20 147 48q121 27 168 27q116 0 203 -56q101 -64 101 -175l-1 -493h71q56 0 56 -43zM794 210v167q-103 30 -238 30q-117 0 -209 -42q-120 -54 -120 -157
q0 -82 67 -125q57 -37 144 -37q185 0 356 164z" />
    <glyph glyph-name="atilde" unicode="&#xe3;" horiz-adv-x="1146" 
d="M864 1136q0 -41 -74 -86q-69 -41 -113 -41q-56 0 -146 61t-117 61q-34 0 -82.5 -40.5t-64.5 -40.5q-41 0 -41 40q0 38 74 83q69 42 113 42q54 0 143.5 -60.5t120.5 -60.5q29 0 80 40.5t65 40.5q42 0 42 -39zM997 42q0 -42 -56 -42h-147v109q-165 -139 -353 -139
q-119 0 -199 58q-91 65 -91 180q0 141 136 215q109 60 261 60q108 0 246 -28v123q0 81 -80 122q-62 32 -151 32q-57 0 -163.5 -30.5t-121.5 -30.5q-35 0 -35 38q0 14 9 25q17 20 147 48q121 27 168 27q116 0 203 -56q101 -64 101 -175l-1 -493h71q56 0 56 -43zM794 210v167
q-103 30 -238 30q-117 0 -209 -42q-120 -54 -120 -157q0 -82 67 -125q57 -37 144 -37q185 0 356 164z" />
    <glyph glyph-name="adieresis" unicode="&#xe4;" horiz-adv-x="1146" 
d="M791 1083q0 -31 -22.5 -53.5t-54.5 -22.5t-54.5 22t-22.5 54t22.5 54.5t54.5 22.5t54.5 -22.5t22.5 -54.5zM491 1083q0 -31 -22.5 -53.5t-54.5 -22.5t-54.5 22t-22.5 54t22.5 54.5t54.5 22.5t54.5 -22.5t22.5 -54.5zM997 42q0 -42 -56 -42h-147v109q-165 -139 -353 -139
q-119 0 -199 58q-91 65 -91 180q0 141 136 215q109 60 261 60q108 0 246 -28v123q0 81 -80 122q-62 32 -151 32q-57 0 -163.5 -30.5t-121.5 -30.5q-35 0 -35 38q0 14 9 25q17 20 147 48q121 27 168 27q116 0 203 -56q101 -64 101 -175l-1 -493h71q56 0 56 -43zM794 210v167
q-103 30 -238 30q-117 0 -209 -42q-120 -54 -120 -157q0 -82 67 -125q57 -37 144 -37q185 0 356 164z" />
    <glyph glyph-name="aring" unicode="&#xe5;" horiz-adv-x="1146" 
d="M702 1142q0 -56 -40 -94.5t-95 -38.5q-56 0 -96 38.5t-40 94.5t40 95t96 39q55 0 95 -39t40 -95zM997 42q0 -42 -56 -42h-147v109q-165 -139 -353 -139q-119 0 -199 58q-91 65 -91 180q0 141 136 215q109 60 261 60q108 0 246 -28v123q0 81 -80 122q-62 32 -151 32
q-57 0 -163.5 -30.5t-121.5 -30.5q-35 0 -35 38q0 14 9 25q17 20 147 48q121 27 168 27q116 0 203 -56q101 -64 101 -175l-1 -493h71q56 0 56 -43zM657 1142q0 37 -26.5 63t-63.5 26q-38 0 -64.5 -26t-26.5 -63t27 -62.5t64 -25.5t63.5 25.5t26.5 62.5zM794 210v167
q-103 30 -238 30q-117 0 -209 -42q-120 -54 -120 -157q0 -82 67 -125q57 -37 144 -37q185 0 356 164z" />
    <glyph glyph-name="ae" unicode="&#xe6;" horiz-adv-x="1784" 
d="M1641 125q0 -55 -168 -115q-111 -39 -227 -39q-240 0 -366 174v-89q-2 -17 -12 -43q-12 -13 -31 -13q-18 0 -30 13l-12 43l-1 53q-165 -139 -353 -139q-119 0 -199 58q-91 65 -91 180q0 141 136 215q109 60 261 60q107 0 245 -28l1 10v113q0 81 -80 122q-62 32 -151 32
q-57 0 -163.5 -30.5t-121.5 -30.5q-35 0 -35 38q0 14 9 25q17 20 147 48q121 27 168 27q98 0 179 -42q92 -47 117 -131q125 174 352 174q190 0 308 -123t116 -313h-769v-23q27 -140 129 -222t247 -82q187 0 329 102q19 14 30 14q36 0 36 -38zM1563 450q-23 128 -120 205.5
t-228 77.5q-128 0 -222.5 -72.5t-121.5 -195.5v-15h692zM794 210v137q-2 16 -3 31q-102 29 -235 29q-117 0 -209 -42q-120 -54 -120 -157q0 -82 67 -125q57 -37 144 -37q185 0 356 164z" />
    <glyph glyph-name="ccedilla" unicode="&#xe7;" horiz-adv-x="1094" 
d="M988 159q0 -39 -92 -99q-128 -85 -286 -95q0 -18 -4 -71q118 -17 118 -110q0 -57 -45 -89q-40 -28 -99 -28q-44 0 -104 19q-74 23 -74 56q0 30 30 30q5 0 57 -22.5t91 -22.5q83 0 83 59q0 51 -117 51v127q-174 8 -285 122.5t-111 290.5q0 184 120 304.5t304 120.5
q174 0 293 -104q0 77 37 77q39 0 39 -51v-172q0 -51 -39 -51q-15 0 -25 10l-18 59q-15 51 -79 98q-78 57 -212 57q-154 0 -249 -96.5t-95 -250.5q0 -151 97.5 -245t248.5 -94q190 0 346 138q21 18 33 18q37 0 37 -36z" />
    <glyph glyph-name="egrave" unicode="&#xe8;" horiz-adv-x="1150" 
d="M618 1053q0 -43 -43 -43q-15 0 -38 20l-236 204q-25 21 -25 41q0 43 43 43q25 0 159 -120q125 -111 137 -129q3 -9 3 -16zM1001 125q0 -55 -168 -115q-111 -39 -227 -39q-190 0 -323 124t-133 313q0 173 127 289q124 113 298 113q190 0 308 -123t116 -313h-772
q20 -150 123.5 -238.5t255.5 -88.5q187 0 329 102q19 14 30 14q36 0 36 -38zM923 450q-23 128 -120 205.5t-228 77.5q-132 0 -228 -77t-119 -206h695z" />
    <glyph glyph-name="eacute" unicode="&#xe9;" horiz-adv-x="1150" 
d="M874 1275q0 -20 -25 -41l-236 -204q-23 -20 -38 -20q-43 0 -43 43q0 7 3 16q12 18 137 129q135 120 159 120q43 0 43 -43zM1001 125q0 -55 -168 -115q-111 -39 -227 -39q-190 0 -323 124t-133 313q0 173 127 289q124 113 298 113q190 0 308 -123t116 -313h-772
q20 -150 123.5 -238.5t255.5 -88.5q187 0 329 102q19 14 30 14q36 0 36 -38zM923 450q-23 128 -120 205.5t-228 77.5q-132 0 -228 -77t-119 -206h695z" />
    <glyph glyph-name="ecircumflex" unicode="&#xea;" horiz-adv-x="1150" 
d="M858 1052q0 -42 -43 -42q-21 0 -132 86l-124 100q-62 -50 -123 -100q-111 -86 -133 -86q-42 0 -42 42q0 20 28 42l270 206l271 -206q28 -22 28 -42zM1001 125q0 -55 -168 -115q-111 -39 -227 -39q-190 0 -323 124t-133 313q0 173 127 289q124 113 298 113q190 0 308 -123
t116 -313h-772q20 -150 123.5 -238.5t255.5 -88.5q187 0 329 102q19 14 30 14q36 0 36 -38zM923 450q-23 128 -120 205.5t-228 77.5q-132 0 -228 -77t-119 -206h695z" />
    <glyph glyph-name="edieresis" unicode="&#xeb;" horiz-adv-x="1150" 
d="M792 1086q0 -31 -22.5 -53.5t-54.5 -22.5t-54.5 22t-22.5 54t22.5 54.5t54.5 22.5t54.5 -22.5t22.5 -54.5zM492 1086q0 -31 -22.5 -53.5t-54.5 -22.5t-54.5 22t-22.5 54t22.5 54.5t54.5 22.5t54.5 -22.5t22.5 -54.5zM1001 125q0 -55 -168 -115q-111 -39 -227 -39
q-190 0 -323 124t-133 313q0 173 127 289q124 113 298 113q190 0 308 -123t116 -313h-772q20 -150 123.5 -238.5t255.5 -88.5q187 0 329 102q19 14 30 14q36 0 36 -38zM923 450q-23 128 -120 205.5t-228 77.5q-132 0 -228 -77t-119 -206h695z" />
    <glyph glyph-name="igrave" unicode="&#xec;" horiz-adv-x="638" 
d="M455 1005q0 -43 -43 -43q-15 0 -38 20l-236 204q-25 22 -25 41q0 43 43 43q25 0 159 -120q125 -110 137 -129q3 -9 3 -16zM278 84v593h-71q-56 0 -56 43q0 42 56 42h155v-678h-84zM435 84q56 0 56 -43q0 -42 -56 -42h-226q-56 0 -56 42q0 43 56 43h226z" />
    <glyph glyph-name="iacute" unicode="&#xed;" horiz-adv-x="638" 
d="M496 1227q0 -19 -25 -41l-236 -204q-23 -20 -38 -20q-43 0 -43 43q0 7 3 16q12 19 137 129q134 120 159 120q43 0 43 -43zM278 84v593h-71q-56 0 -56 43q0 42 56 42h155v-678h-84zM435 84q56 0 56 -43q0 -42 -56 -42h-226q-56 0 -56 42q0 43 56 43h226z" />
    <glyph glyph-name="icircumflex" unicode="&#xee;" horiz-adv-x="638" 
d="M617 1004q0 -42 -43 -42q-21 0 -132 87q-62 49 -124 99q-62 -50 -123 -100q-111 -86 -133 -86q-42 0 -42 42q0 21 28 42l270 206l271 -206q28 -21 28 -42zM278 84v593h-71q-56 0 -56 43q0 42 56 42h155v-678h-84zM435 84q56 0 56 -43q0 -42 -56 -42h-226q-56 0 -56 42
q0 43 56 43h226z" />
    <glyph glyph-name="idieresis" unicode="&#xef;" horiz-adv-x="638" 
d="M529 1039q0 -32 -22.5 -54.5t-54.5 -22.5t-54.5 22.5t-22.5 54.5t22.5 54.5t54.5 22.5t54.5 -23t22.5 -54zM229 1039q0 -32 -22.5 -54.5t-54.5 -22.5t-54.5 22.5t-22.5 54.5t22.5 54.5t54.5 22.5t54.5 -23t22.5 -54zM278 84v593h-71q-56 0 -56 43q0 42 56 42h155v-678
h-84zM435 84q56 0 56 -43q0 -42 -56 -42h-226q-56 0 -56 42q0 43 56 43h226z" />
    <glyph glyph-name="eth" unicode="&#xf0;" horiz-adv-x="1148" 
d="M999 450q0 -214 -105 -340q-114 -136 -323 -136q-177 0 -299 119.5t-122 296.5q0 171 121 285.5t293 114.5q231 0 350 -189q-35 138 -85 215q-45 68 -158 169q-290 -101 -308 -101q-39 0 -39 34q0 12 14 26q32 32 256 82q-79 15 -172 42q-13 11 -13 26q0 36 50 36
q117 0 229 -69q46 18 92 37q61 23 94 23t33 -36q0 -39 -129 -65l-25 -5q246 -226 246 -565zM916 379q0 145 -100 241q-98 93 -244 93q-144 0 -244 -91q-104 -95 -104 -237q0 -140 105.5 -240t245.5 -100q145 0 243 95t98 239z" />
    <glyph glyph-name="ntilde" unicode="&#xf1;" horiz-adv-x="1282" 
d="M949 1119q0 -40 -74 -85q-68 -42 -113 -42q-56 0 -146 61t-117 61q-34 0 -82.5 -40.5t-64.5 -40.5q-41 0 -41 40q0 38 74 83q69 42 113 42q54 0 143.5 -60.5t120.5 -60.5q30 0 80.5 40.5t64.5 40.5q42 0 42 -39zM1132 41q0 -42 -56 -42h-226q-56 0 -56 42q0 43 56 43h71
l-1 411q0 98 -72 157q-67 55 -167 55q-102 0 -181 -59q-46 -34 -137 -141l1 -423h71q56 0 56 -43q0 -42 -56 -42h-226q-56 0 -56 42q0 43 56 43h71l-1 593h-71q-56 0 -56 43q0 42 56 42h155v-127q155 157 319 157q128 0 222 -76q100 -81 100 -207l1 -425h71q56 0 56 -43z
" />
    <glyph glyph-name="ograve" unicode="&#xf2;" horiz-adv-x="1146" 
d="M617 1050q0 -43 -43 -43q-15 0 -38 20l-236 204q-25 21 -25 41q0 43 43 43q25 0 159 -120q125 -111 137 -129q3 -9 3 -16zM997 387q0 -175 -123.5 -297t-299.5 -122t-300 121.5t-124 297.5t124 298t300 122t299.5 -122t123.5 -298zM921 387q0 144 -101.5 243.5
t-246.5 99.5q-144 0 -245.5 -99.5t-101.5 -243.5q0 -143 102 -243t245 -100q144 0 246 99.5t102 243.5z" />
    <glyph glyph-name="oacute" unicode="&#xf3;" horiz-adv-x="1146" 
d="M873 1272q0 -20 -25 -41l-236 -204q-23 -20 -38 -20q-43 0 -43 43q0 7 3 16q12 18 137 129q135 120 159 120q43 0 43 -43zM997 387q0 -175 -123.5 -297t-299.5 -122t-300 121.5t-124 297.5t124 298t300 122t299.5 -122t123.5 -298zM921 387q0 144 -101.5 243.5
t-246.5 99.5q-144 0 -245.5 -99.5t-101.5 -243.5q0 -143 102 -243t245 -100q144 0 246 99.5t102 243.5z" />
    <glyph glyph-name="ocircumflex" unicode="&#xf4;" horiz-adv-x="1146" 
d="M867 1049q0 -42 -43 -42q-20 0 -132 86l-124 100q-62 -50 -123 -100q-111 -86 -133 -86q-42 0 -42 42q0 20 28 42l270 206l271 -206q28 -22 28 -42zM997 387q0 -175 -123.5 -297t-299.5 -122t-300 121.5t-124 297.5t124 298t300 122t299.5 -122t123.5 -298zM921 387
q0 144 -101.5 243.5t-246.5 99.5q-144 0 -245.5 -99.5t-101.5 -243.5q0 -143 102 -243t245 -100q144 0 246 99.5t102 243.5z" />
    <glyph glyph-name="otilde" unicode="&#xf5;" horiz-adv-x="1146" 
d="M861 1134q0 -41 -74 -86q-68 -41 -113 -41q-55 0 -145.5 61t-117.5 61q-34 0 -82.5 -40.5t-64.5 -40.5q-41 0 -41 40q0 38 74 83q70 42 113 42q55 0 144 -60.5t120 -60.5q30 0 80.5 40.5t64.5 40.5q42 0 42 -39zM997 387q0 -175 -123.5 -297t-299.5 -122t-300 121.5
t-124 297.5t124 298t300 122t299.5 -122t123.5 -298zM921 387q0 144 -101.5 243.5t-246.5 99.5q-144 0 -245.5 -99.5t-101.5 -243.5q0 -143 102 -243t245 -100q144 0 246 99.5t102 243.5z" />
    <glyph glyph-name="odieresis" unicode="&#xf6;" horiz-adv-x="1146" 
d="M791 1083q0 -31 -22.5 -53.5t-54.5 -22.5t-54.5 22t-22.5 54t22.5 54.5t54.5 22.5t54.5 -22.5t22.5 -54.5zM491 1083q0 -31 -22.5 -53.5t-54.5 -22.5t-54.5 22t-22.5 54t22.5 54.5t54.5 22.5t54.5 -22.5t22.5 -54.5zM997 387q0 -175 -123.5 -297t-299.5 -122t-300 121.5
t-124 297.5t124 298t300 122t299.5 -122t123.5 -298zM921 387q0 144 -101.5 243.5t-246.5 99.5q-144 0 -245.5 -99.5t-101.5 -243.5q0 -143 102 -243t245 -100q144 0 246 99.5t102 243.5z" />
    <glyph glyph-name="divide" unicode="&#xf7;" horiz-adv-x="1239" 
d="M702 976q0 -34 -23.5 -58t-57.5 -24t-58 24t-24 58t24 57.5t58 23.5t57.5 -23.5t23.5 -57.5zM1091 583q0 -42 -78 -42h-785q-78 0 -78 42t78 42h785q78 0 78 -42zM702 190q0 -34 -24 -57.5t-58 -23.5t-57.5 23.5t-23.5 57.5t23.5 57.5t57.5 23.5t58 -23.5t24 -57.5z" />
    <glyph glyph-name="oslash" unicode="&#xf8;" horiz-adv-x="1171" 
d="M1042 827q0 -15 -130 -148q110 -119 110 -279q0 -177 -129 -298t-307 -121q-146 0 -268 90q-134 -137 -150 -137q-38 0 -38 39q0 14 131 148q-111 120 -111 280q0 177 129 298t307 121q151 0 269 -90q132 136 149 136q38 0 38 -39zM945 400q0 127 -87 225l-487 -499
q96 -69 216 -69q146 0 252 98.5t106 244.5zM801 675q-96 68 -215 68q-147 0 -252 -97q-107 -100 -107 -246q0 -124 87 -224z" />
    <glyph glyph-name="ugrave" unicode="&#xf9;" horiz-adv-x="1273" 
d="M632 1005q0 -43 -43 -43q-15 0 -38 20l-236 204q-25 22 -25 41q0 43 43 43q25 0 159 -120q125 -110 137 -129q3 -9 3 -16zM1126 42q0 -42 -56 -42h-155v123q-172 -156 -372 -156q-121 0 -195.5 75.5t-74.5 196.5v438q-83 0 -77 -1q-50 6 -50 44q0 42 56 42h155v-523
q0 -81 51 -134.5t131 -53.5q205 0 376 188v438q-83 0 -77 -1q-50 6 -50 44q0 42 56 42h155v-678q84 0 76 1q51 -6 51 -43z" />
    <glyph glyph-name="uacute" unicode="&#xfa;" horiz-adv-x="1273" 
d="M875 1227q0 -19 -25 -41l-236 -204q-23 -20 -38 -20q-43 0 -43 43q0 7 3 16q12 19 137 129q134 120 159 120q43 0 43 -43zM1126 42q0 -42 -56 -42h-155v123q-172 -156 -372 -156q-121 0 -195.5 75.5t-74.5 196.5v438q-83 0 -77 -1q-50 6 -50 44q0 42 56 42h155v-523
q0 -81 51 -134.5t131 -53.5q205 0 376 188v438q-83 0 -77 -1q-50 6 -50 44q0 42 56 42h155v-678q84 0 76 1q51 -6 51 -43z" />
    <glyph glyph-name="ucircumflex" unicode="&#xfb;" horiz-adv-x="1273" 
d="M907 1004q0 -42 -43 -42q-21 0 -132 87q-62 49 -124 99q-62 -50 -123 -100q-111 -86 -133 -86q-42 0 -42 42q0 21 28 42l270 206l271 -206q28 -21 28 -42zM1126 42q0 -42 -56 -42h-155v123q-172 -156 -372 -156q-121 0 -195.5 75.5t-74.5 196.5v438q-83 0 -77 -1
q-50 6 -50 44q0 42 56 42h155v-523q0 -81 51 -134.5t131 -53.5q205 0 376 188v438q-83 0 -77 -1q-50 6 -50 44q0 42 56 42h155v-678q84 0 76 1q51 -6 51 -43z" />
    <glyph glyph-name="udieresis" unicode="&#xfc;" horiz-adv-x="1273" 
d="M834 1039q0 -32 -22.5 -54.5t-54.5 -22.5t-54.5 22.5t-22.5 54.5t22.5 54.5t54.5 22.5t54.5 -23t22.5 -54zM534 1039q0 -32 -22.5 -54.5t-54.5 -22.5t-54.5 22.5t-22.5 54.5t22.5 54.5t54.5 22.5t54.5 -23t22.5 -54zM1126 42q0 -42 -56 -42h-155v123q-172 -156 -372 -156
q-121 0 -195.5 75.5t-74.5 196.5v438q-83 0 -77 -1q-50 6 -50 44q0 42 56 42h155v-523q0 -81 51 -134.5t131 -53.5q205 0 376 188v438q-83 0 -77 -1q-50 6 -50 44q0 42 56 42h155v-678q84 0 76 1q51 -6 51 -43z" />
    <glyph glyph-name="yacute" unicode="&#xfd;" horiz-adv-x="1419" 
d="M994 1227q0 -19 -25 -41l-236 -204q-23 -20 -38 -20q-43 0 -43 43q0 7 3 16q12 19 137 129q134 120 159 120q43 0 43 -43zM1258 750q13 -12 13 -30q0 -38 -51 -44q9 1 -76 1zM485 750q13 -12 13 -30q0 -38 -51 -44q9 1 -76 1zM1271 720q0 -38 -51 -44q9 1 -76 1
l-635 -1078q85 0 76 1q51 -6 51 -44q0 -42 -53 -42h-240q-53 0 -53 42q0 38 51 44q-9 -1 76 -1l235 401l-373 677q-85 0 -76 -1q-51 6 -51 44q0 42 53 42h240q53 0 53 -42q0 -38 -51 -44q9 1 -76 1l336 -585l345 585q-85 0 -76 -1q-51 6 -51 44q0 42 53 42h240q53 0 53 -42z
M623 -474q13 12 13 30q0 38 -51 44q9 -1 -76 -1z" />
    <glyph glyph-name="thorn" unicode="&#xfe;" horiz-adv-x="1229" 
d="M1127 375q0 -176 -123.5 -298t-299.5 -122q-218 0 -347 178v-535q83 0 77 1q50 -6 50 -43q0 -42 -56 -42h-225q-57 0 -57 42q0 37 50 43q-6 -1 77 -1v1566q-82 0 -77 -1q-50 6 -50 43q0 42 57 42h154l1 -631q129 177 346 177q176 0 299.5 -122t123.5 -297zM1051 375
q0 144 -102 243.5t-246 99.5q-143 0 -245 -100t-102 -243q0 -144 101.5 -243.5t245.5 -99.5q145 0 246.5 99.5t101.5 243.5z" />
    <glyph glyph-name="ydieresis" unicode="&#xff;" horiz-adv-x="1419" 
d="M1258 750q13 -12 13 -30q0 -38 -51 -44q9 1 -76 1zM922 1038q0 -31 -22.5 -53.5t-54.5 -22.5t-54.5 22.5t-22.5 53.5q0 33 22.5 55.5t54.5 22.5t54.5 -23t22.5 -55zM622 1038q0 -31 -22.5 -53.5t-54.5 -22.5t-54.5 22.5t-22.5 53.5q0 33 22.5 55.5t54.5 22.5t54.5 -23
t22.5 -55zM485 750q13 -12 13 -30q0 -38 -51 -44q9 1 -76 1zM1271 720q0 -38 -51 -44q9 1 -76 1l-635 -1078q85 0 76 1q51 -6 51 -44q0 -42 -53 -42h-240q-53 0 -53 42q0 38 51 44q-9 -1 76 -1l235 401l-373 677q-85 0 -76 -1q-51 6 -51 44q0 42 53 42h240q53 0 53 -42
q0 -38 -51 -44q9 1 -76 1l336 -585l345 585q-85 0 -76 -1q-51 6 -51 44q0 42 53 42h240q53 0 53 -42zM623 -474q13 12 13 30q0 38 -51 44q9 -1 -76 -1z" />
    <glyph glyph-name="Amacron" unicode="&#x100;" horiz-adv-x="1504" 
d="M1026 1316q0 -42 -53 -42h-478q-52 0 -52 43q0 42 52 42h478q53 0 53 -43zM1356 45q0 -42 -56 -42h-226q-56 0 -56 42q0 43 56 43h71l-115 307h-552l-107 -307h61q56 0 56 -43q0 -42 -56 -42h-226q-56 0 -56 42q0 43 56 43h71l406 1087l140 -1l406 -1086h71q56 0 56 -43z
M998 479l-232 611h-31l-225 -611h488z" />
    <glyph glyph-name="glyph5" unicode="&#x101;" horiz-adv-x="681" 
 />
    <glyph glyph-name="mu1" unicode="&#x103;" horiz-adv-x="1280" 
d="M1130 41q0 -18 -13 -30l-43 -12l-155 1v123q-172 -156 -374 -156q-109 0 -184 67v-364q0 -56 -42 -56t-42 56v1111h-71q-56 0 -56 43q0 42 56 42h155v-627q0 -81 51 -134.5t131 -53.5q205 0 376 188v542h-71q-56 0 -56 43q0 42 56 42h155v-782h71q56 0 56 -43z" />
    <glyph glyph-name="Emacron" unicode="&#x112;" horiz-adv-x="1241" 
d="M916 1316q0 -42 -53 -42h-478q-52 0 -52 43q0 42 52 42h478q53 0 53 -43zM1091 0l-885 -1q-17 2 -43 12q-13 12 -13 30q0 43 56 43h71v1002h-71q-56 0 -56 43q0 42 56 42l841 -1v-155q0 -56 -42 -56q-44 0 -43 56l1 71h-602v-437h301v71q0 56 43 56q42 0 42 -56v-226
q0 -56 -42 -56q-43 0 -43 56v71h-301v-481h646l-1 71q-1 56 43 56q42 0 42 -56v-155z" />
    <glyph glyph-name="emacron" unicode="&#x113;" horiz-adv-x="1150" 
d="M859 1051q0 -42 -52 -42h-478q-53 0 -53 43q0 42 53 42h478q52 0 52 -43zM1001 125q0 -55 -168 -115q-111 -39 -227 -39q-190 0 -323 124t-133 313q0 173 127 289q124 113 298 113q190 0 308 -123t116 -313h-772q20 -150 123.5 -238.5t255.5 -88.5q187 0 329 102
q19 14 30 14q36 0 36 -38zM923 450q-23 128 -120 205.5t-228 77.5q-132 0 -228 -77t-119 -206h695z" />
    <glyph glyph-name="U0047U0331" unicode="&#x119;" horiz-adv-x="1327" 
d="M1179 475q0 -42 -86 -42v-360q-194 -107 -382 -107q-251 0 -404 144q-157 147 -157 395v154q0 222 147 379.5t368 157.5q203 0 343 -111q0 44 3 55q8 29 40 29q42 0 42 -56v-190q0 -56 -42 -56q-26 0 -35 32q-18 62 -25 75q-27 50 -91 84q-104 54 -228 54
q-245 0 -384 -243q-54 -94 -54 -211v-153q0 -216 134 -338q128 -117 347 -117q136 0 293 72v311h-289q-56 0 -56 42q0 43 56 43l404 -1q56 0 56 -42zM999 -243q0 -42 -54 -42h-491q-53 0 -53 42q0 43 56 43h486q56 0 56 -43z" />
    <glyph glyph-name="U0067U0331" unicode="&#x11a;" horiz-adv-x="1300" 
d="M1127 720q0 -43 -56 -43h-71l1 -835q0 -136 -102 -232t-239 -96h-238q-56 0 -56 42q0 43 56 43l241 -1q154 -1 232 149q22 41 22 107l2 289q-130 -175 -345 -175q-176 0 -300 121.5t-124 297.5t124 298t300 122q212 0 342 -173v128h155q56 0 56 -42zM889 -606
q0 -42 -54 -42h-492q-52 0 -52 42q0 43 56 43h486q56 0 56 -43zM921 387q0 144 -101.5 243.5t-246.5 99.5q-144 0 -245.5 -99.5t-101.5 -243.5q0 -143 102 -243t245 -100q144 0 246 99.5t102 243.5z" />
    <glyph glyph-name="U0050U0331" unicode="&#x11f;" horiz-adv-x="1192" 
d="M1044 828q0 -121 -81 -210q-73 -80 -195 -120q-52 -17 -130 -22q-55 -3 -143 0q-120 3 -134 3v-396h71q56 0 56 -43q0 -42 -56 -42h-226q-56 0 -56 42q0 43 56 43h71v1002h-71q-56 0 -56 43q0 42 56 42l446 -1q156 0 270 -91q122 -97 122 -250zM915 -243q0 -42 -54 -42
h-492q-52 0 -52 42q0 43 56 43h486q56 0 56 -43zM960 828q0 113 -96 188q-88 69 -204 69h-299v-522h268q123 0 221 69q110 78 110 196z" />
    <glyph glyph-name="U0070U0331" unicode="&#x120;" horiz-adv-x="1229" 
d="M1127 387q0 -175 -123.5 -297t-299.5 -122q-217 0 -346 177l-1 -547q83 0 77 1q50 -6 50 -43q0 -42 -56 -42h-225q-57 0 -57 42q0 37 50 43q-6 -1 77 -1v1079h-71q-56 0 -56 43q0 42 56 42h155v-133q129 178 347 178q176 0 299.5 -122t123.5 -298zM979 -606
q0 -42 -54 -42h-492q-52 0 -52 42q0 43 56 43h486q56 0 56 -43zM1051 387q0 144 -101.5 243.5t-246.5 99.5q-144 0 -245.5 -99.5t-101.5 -243.5q0 -143 102 -243t245 -100q144 0 246 99.5t102 243.5z" />
    <glyph glyph-name="Imacron" unicode="&#x12a;" horiz-adv-x="638" 
d="M616 1316q0 -42 -53 -42h-478q-52 0 -52 43q0 42 52 42h478q53 0 53 -43zM488 41q0 -42 -56 -42h-226q-56 0 -56 42q0 43 56 43h71v1002h-71q-56 0 -56 43q0 42 56 42h226q56 0 56 -42q0 -43 -56 -43h-71v-1002h71q56 0 56 -43z" />
    <glyph glyph-name="imacron" unicode="&#x12b;" horiz-adv-x="638" 
d="M589 1051q0 -42 -52 -42h-478q-53 0 -53 43q0 42 53 42h478q52 0 52 -43zM278 84v593h-71q-56 0 -56 43q0 42 56 42h155v-678h-84zM435 84q56 0 56 -43q0 -42 -56 -42h-226q-56 0 -56 42q0 43 56 43h226z" />
    <glyph glyph-name="Omacron" unicode="&#x14c;" horiz-adv-x="1324" 
d="M966 1316q0 -42 -53 -42h-478q-52 0 -52 43q0 42 52 42h478q53 0 53 -43zM1174 584q0 -240 -133 -418q-147 -197 -379 -197t-379 197q-133 179 -133 418t133 418q147 197 379 197t378 -197q134 -179 134 -418zM1089 584q0 202 -110 358q-123 173 -317 173t-317 -174
q-111 -155 -111 -357q0 -201 111 -357q123 -174 317 -174t317 173q110 155 110 358z" />
    <glyph glyph-name="omacron" unicode="&#x14d;" horiz-adv-x="1146" 
d="M849 1051q0 -42 -52 -42h-478q-53 0 -53 43q0 42 53 42h478q52 0 52 -43zM997 387q0 -175 -123.5 -297t-299.5 -122t-300 121.5t-124 297.5t124 298t300 122t299.5 -122t123.5 -298zM921 387q0 144 -101.5 243.5t-246.5 99.5q-144 0 -245.5 -99.5t-101.5 -243.5
q0 -143 102 -243t245 -100q144 0 246 99.5t102 243.5z" />
    <glyph glyph-name="Umacron" unicode="&#x16a;" horiz-adv-x="1360" 
d="M976 1316q0 -42 -53 -42h-478q-52 0 -52 43q0 42 52 42h478q53 0 53 -43zM1215 1130q0 -43 -56 -43h-71v-702q0 -174 -114 -294q-117 -123 -289 -123q-173 0 -290.5 121.5t-117.5 295.5v702h-71q-56 0 -56 43q0 42 56 42h226q56 0 56 -42q0 -43 -56 -43h-71v-702
q0 -136 92 -233q93 -100 228 -100t229 99t94 234v702h-71q-56 0 -56 43q0 42 56 42h226q56 0 56 -42z" />
    <glyph glyph-name="umacron" unicode="&#x16b;" horiz-adv-x="1273" 
d="M899 1051q0 -42 -52 -42h-478q-53 0 -53 43q0 42 53 42h478q52 0 52 -43zM1126 42q0 -42 -56 -42h-155v123q-172 -156 -372 -156q-121 0 -195.5 75.5t-74.5 196.5v438q-83 0 -77 -1q-50 6 -50 44q0 42 56 42h155v-523q0 -81 51 -134.5t131 -53.5q205 0 376 188v438
q-83 0 -77 -1q-50 6 -50 44q0 42 56 42h155v-678q84 0 76 1q51 -6 51 -43z" />
    <glyph glyph-name="U02c0" unicode="&#x2c0;" horiz-adv-x="395" 
d="M322 1147q0 -45 -55 -93q-17 -14 -39 -50q-4 -13 -4 -39h-43v13q0 45 25 75q25 21 63 64q7 13 7 27q0 28 -21.5 47t-49.5 19q-62 0 -73 -74l-47 5q13 106 119 106q48 0 81 -25q37 -28 37 -75z" />
    <glyph glyph-name="U02c1" unicode="&#x2c1;" horiz-adv-x="395" 
d="M322 1141l-46 -5q-12 74 -74 74q-28 0 -49 -19t-21 -47q0 -27 37 -60q20 -17 50 -60q8 -20 8 -46q0 -5 -1 -13h-43q-1 42 -14 60q-7 9 -28 29q-56 48 -56 93q0 47 37 75q33 25 81 25q106 0 119 -106z" />
    <glyph glyph-name="U02d2" unicode="&#x2d2;" horiz-adv-x="638" 
d="M370 1087q0 -78 -45 -165q-32 -63 -44 -63q-13 0 -13 13l2 6q35 67 47 110q15 49 15 99q0 49 -15 98q-12 43 -47 110l-2 6q0 13 13 13q16 0 46 -67q27 -58 34 -87q9 -39 9 -73z" />
    <glyph glyph-name="U02d3" unicode="&#x2d3;" horiz-adv-x="638" 
d="M370 872q0 -13 -13 -13q-12 0 -44 63q-45 87 -45 165q0 34 9 73q7 29 34 87q30 67 46 67q13 0 13 -13l-2 -6q-35 -67 -48 -110q-14 -49 -14 -98q0 -50 14 -99q13 -43 48 -110z" />
    <glyph glyph-name="U0303" unicode="&#x303;" horiz-adv-x="0" 
d="M658 137q0 -46 -79 -94q-71 -43 -118 -43q-59 0 -149 61t-114 61q-31 0 -79 -40.5t-68 -40.5q-51 0 -51 50q0 44 79 91q72 44 118 44q57 0 146.5 -60.5t117.5 -60.5q27 0 77 40.5t68 40.5q52 0 52 -49z" />
    <glyph glyph-name="U0304" unicode="&#x304;" horiz-adv-x="0" 
d="M618 52q0 -52 -64 -52h-491q-63 0 -63 52q0 53 66 53h486q66 0 66 -53z" />
    <glyph glyph-name="U0307" unicode="&#x307;" horiz-adv-x="0" 
d="M216 0h-216v244h216v-244z" />
    <glyph glyph-name="U0308" unicode="&#x308;" horiz-adv-x="0" 
d="M525 0h-216v244h216v-244zM216 0h-216v244h216v-244z" />
    <glyph glyph-name="U030a" unicode="&#x30a;" horiz-adv-x="0" 
d="M292 144q0 -60 -43 -102t-103 -42t-103 42t-43 102q0 59 43 101t103 42t103 -42t43 -101zM227 144q0 32 -24 55t-57 23t-57 -23t-24 -55q0 -33 24 -56t57 -23t57 23t24 56z" />
    <glyph glyph-name="U0323" unicode="&#x323;" horiz-adv-x="0" 
d="M216 -244h-216v244h216v-244z" />
    <glyph glyph-name="U0324" unicode="&#x324;" horiz-adv-x="0" 
d="M525 -244h-216v244h216v-244zM216 -244h-216v244h216v-244z" />
    <glyph glyph-name="U0325" unicode="&#x325;" horiz-adv-x="0" 
d="M292 -144q0 -59 -43 -101t-103 -42t-103 42t-43 101q0 60 43 102t103 42t103 -42t43 -102zM227 -144q0 33 -24 56t-57 23t-57 -23t-24 -56q0 -32 24 -55t57 -23t57 23t24 55z" />
    <glyph glyph-name="U032d" unicode="&#x32d;" horiz-adv-x="0" 
d="M617 -261q0 -52 -53 -52q-28 0 -256 184q-226 -184 -256 -184q-52 0 -52 52q0 26 32 50l276 211l277 -211q32 -24 32 -50z" />
    <glyph glyph-name="U032e" unicode="&#x32e;" horiz-adv-x="0" 
d="M617 -56q0 -115 -104 -184q-90 -60 -207 -60t-207 60q-104 69 -104 184q0 56 52 56q45 0 52 -57q8 -66 74 -104q58 -34 133 -34q90 0 145 43q32 24 67 114q15 38 46 38q53 0 53 -56z" />
    <glyph glyph-name="U0330" unicode="&#x330;" horiz-adv-x="0" 
d="M658 -89q0 -46 -79 -94q-71 -43 -118 -43q-59 0 -149 61t-114 61q-31 0 -79 -40.5t-68 -40.5q-51 0 -51 50q0 44 79 91q72 44 118 44q57 0 146.5 -60.5t117.5 -60.5q27 0 77 40.5t68 40.5q52 0 52 -49z" />
    <glyph glyph-name="U0331" unicode="&#x331;" horiz-adv-x="0" 
d="M618 -53q0 -52 -64 -52h-491q-63 0 -63 52q0 53 66 53h486q66 0 66 -53z" />
    <glyph glyph-name="U060c" unicode="&#x60c;" horiz-adv-x="455" 
d="M352 121l-121 -121l-93 94q-35 35 -35 65q0 43 67 111q52 52 111 91q34 22 43 22q20 0 16 -18q-1 -7 -28 -32q-51 -47 -51 -85q0 -36 26 -62z" />
    <glyph glyph-name="U061b" unicode="&#x61b;" horiz-adv-x="455" 
d="M352 481l-121 -121l-93 94q-35 35 -35 65q0 43 67 111q52 53 111 91q34 22 43 22q20 0 16 -18q-1 -7 -28 -32q-51 -47 -51 -85q0 -35 26 -61zM343 129l-110 -129l-130 106l109 129z" />
    <glyph glyph-name="U061f" unicode="&#x61f;" horiz-adv-x="804" 
d="M723 795q0 -47 -35 -47q-32 0 -36 48q1 -15 1 70q-120 58 -221 58t-170 -60q-72 -64 -72 -164q0 -122 284 -227v-117q0 -46 -35 -46q-32 0 -36 47q1 -13 1 69q-137 58 -189 98q-95 73 -95 178q0 132 88 213q85 79 218 79q109 0 297 -83v-116zM561 61q0 -35 -25.5 -60
t-60.5 -25h-69q-36 0 -61.5 25t-25.5 61t25 61t62 25h69q36 0 61 -25.5t25 -61.5z" />
    <glyph glyph-name="U0621" unicode="&#x621;" horiz-adv-x="569" 
d="M602 291q-26 -92 -70 -114l-371 -177v33q0 60 144 122q-155 38 -155 125q0 74 81 175q85 105 158 105q39 0 63.5 -27.5t24.5 -65.5q0 -36 -51 -110q-42 69 -89 69q-36 0 -64.5 -27t-28.5 -63q0 -38 84 -64q66 -21 116 -21q52 0 158 40z" />
    <glyph glyph-name="U0640" unicode="&#x640;" horiz-adv-x="384" 
d="M384 0h-454v208h454v-208z" />
    <glyph glyph-name="U064b" unicode="&#x64b;" horiz-adv-x="0" 
d="M326 383q0 -66 -36 -87l-290 -164q4 52 13 70q12 24 53 47l260 151v-17zM326 251q0 -66 -36 -87l-290 -164q4 52 13 70q12 24 53 48l260 150v-17z" />
    <glyph glyph-name="U064c" unicode="&#x64c;" horiz-adv-x="0" 
d="M380 143q0 -32 -2 -54l-1 -15q-48 25 -91 56q-110 -113 -234 -130q45 97 45 129q0 39 -34 39q-29 0 -38 -108q-25 76 -25 97q0 40 21 71q24 38 65 38q71 0 71 -86q0 -20 -5 -82q44 21 86 64q-55 40 -55 87t35 93q38 50 85 50q29 0 50.5 -27.5t21.5 -55.5q0 -31 -28 -99
q33 -29 33 -67zM292 273q0 38 -27 38q-14 0 -14 -11q0 -15 40 -45q1 7 1 18z" />
    <glyph glyph-name="U064d" unicode="&#x64d;" horiz-adv-x="0" 
d="M326 -17q0 -66 -36 -87l-290 -164q4 52 13 70q12 24 53 48l260 150v-17zM326 -149q0 -66 -36 -86l-290 -165q4 52 13 70q12 24 53 48l260 150v-17z" />
    <glyph glyph-name="U064e" unicode="&#x64e;" horiz-adv-x="0" 
d="M326 251q0 -66 -36 -87l-290 -164q4 52 13 70q12 24 53 48l260 150v-17z" />
    <glyph glyph-name="U064f" unicode="&#x64f;" horiz-adv-x="0" 
d="M346 187l-9 -111l-79 51q-106 -127 -179 -127q-19 0 -79 18q108 60 202 143q-49 40 -49 82q0 49 30 101q35 60 84 60q72 0 72 -89q0 -43 -26 -102q11 -8 33 -26zM263 262q0 45 -38 45q-6 0 -6 -8q0 -21 42 -51q2 7 2 14z" />
    <glyph glyph-name="U0650" unicode="&#x650;" horiz-adv-x="0" 
d="M326 -17q0 -66 -36 -87l-290 -164q4 52 13 70q12 24 53 48l260 150v-17z" />
    <glyph glyph-name="U0651" unicode="&#x651;" horiz-adv-x="0" 
d="M339 220q0 -161 -103 -161q-28 0 -52 13q-28 -72 -100 -72q-84 0 -84 107q0 22 22 100l39 7v-12q0 -90 25 -90q49 0 72 144l33 11q21 -92 45 -92q43 0 50 130l38 16q15 -62 15 -101z" />
    <glyph glyph-name="U0652" unicode="&#x652;" horiz-adv-x="0" 
d="M253 158q0 -61 -42 -108q-44 -50 -104 -50q-107 0 -107 119q0 69 29 120q37 63 105 63q52 0 87 -49q32 -44 32 -95zM183 136q0 20 -33.5 44t-56.5 24q-43 0 -43 -51q0 -44 73 -44q60 0 60 27z" />
    <glyph glyph-name="U0653" unicode="&#x653;" horiz-adv-x="0" 
d="M580 116q-105 -116 -251 -116q-38 0 -110.5 20.5t-110.5 20.5q-32 0 -81 -26l-27 22q68 117 133 117q48 0 140 -25t140 -25q47 0 142 37z" />
    <glyph glyph-name="U0654" unicode="&#x654;" horiz-adv-x="0" 
d="M307 158q-3 -17 -13 -51q-10 -26 -28 -31l-266 -76q16 66 82 96q-47 29 -47 69q0 45 63 100.5t110 55.5q57 0 57 -60q0 -25 -33 -75q-52 33 -76 33q-20 0 -46 -20q64 -57 113 -57q22 0 84 16z" />
    <glyph glyph-name="U0655" unicode="&#x655;" horiz-adv-x="0" 
d="M307 -163q-3 -18 -13 -51q-10 -26 -28 -31l-266 -76q16 66 82 96q-47 29 -47 69q0 45 63 100.5t110 55.5q57 0 57 -61q0 -24 -33 -75q-52 34 -76 34q-20 0 -46 -20q64 -58 113 -58q22 0 84 17z" />
    <glyph glyph-name="U0656" unicode="&#x656;" horiz-adv-x="0" 
d="M467 205q0 -84 -74 -115q-49 -20 -156 -20h-36q-149 0 -180 -49l-13 -21q-8 40 -8 56q0 5 2 19q21 30 67 54t83 26q35 65 92 109q64 49 130 49q93 0 93 -108zM385 195q0 37 -34 37q-78 0 -133 -76h24q143 0 143 39z" />
    <glyph glyph-name="U0660" unicode="&#x660;" horiz-adv-x="854" 
d="M544 507q-16 -63 -42 -197l-3 -13q-107 61 -185 122q24 113 62 223q78 -70 168 -135z" />
    <glyph glyph-name="U0661" unicode="&#x661;" horiz-adv-x="939" 
d="M590 219q0 -83 -21 -242l-1 -9h-41q-3 238 -62 431q-59 190 -191 392q23 101 63 217q253 -390 253 -789z" />
    <glyph glyph-name="U0662" unicode="&#x662;" horiz-adv-x="939" 
d="M698 964q0 -146 -27 -214q-44 -115 -171 -115q-20 0 -50 4q95 -231 95 -444q0 -48 -13 -227h-47q-19 263 -88.5 453.5t-224.5 404.5l63 170q144 -183 257 -183q137 0 169 161h37v-10z" />
    <glyph glyph-name="U0663" unicode="&#x663;" horiz-adv-x="939" 
d="M852 970q0 -300 -195 -300q-72 0 -122 60q-71 -93 -161 -87q63 -178 63 -372q0 -102 -25 -303h-46q2 46 2 86q0 387 -253 727l58 202q121 -172 211 -172q127 0 187 171h27q18 -134 108 -134q91 0 108 135l38 -4v-9z" />
    <glyph glyph-name="U0664" unicode="&#x664;" horiz-adv-x="939" 
d="M736 139l-52 -171q-395 71 -395 163q0 90 64 182q27 39 128 150q-219 89 -219 158q0 97 131 226q94 91 207 161l-49 -182q-145 -61 -145 -96q0 -15 113 -73q123 -63 123 -92q0 -25 -118 -155.5t-118 -152.5q0 -24 143 -68q67 -21 187 -50z" />
    <glyph glyph-name="U0665" unicode="&#x665;" horiz-adv-x="939" 
d="M759 511q0 -63 -40 -149q-50 -108 -113 -150t-181 -42q-90 0 -157 42q-78 50 -78 138q0 103 80 257q91 174 188 174q100 0 198 -83q103 -87 103 -187zM673 405q0 66 -106 145q-101 77 -173 77q-44 0 -82 -66q-34 -61 -34 -113q0 -107 238 -107q157 0 157 64z" />
    <glyph glyph-name="U0666" unicode="&#x666;" horiz-adv-x="939" 
d="M765 179l-18 -211q-156 37 -171 244q-7 88 -19 467q-107 -27 -185 -27q-115 0 -154 35.5t-39 147.5q0 47 6 105h34q53 -97 212 -97q78 0 221 42q-34 -150 -34 -247q0 -355 147 -459z" />
    <glyph glyph-name="U0667" unicode="&#x667;" horiz-adv-x="939" 
d="M831 717q-130 -75 -220 -344q-63 -186 -89 -396l-1 -9h-50q-26 200 -104 395q-104 262 -245 329l15 253q148 -61 254 -352q52 -141 107 -380q133 645 333 739v-235z" />
    <glyph glyph-name="U0668" unicode="&#x668;" horiz-adv-x="939" 
d="M831 228l-15 -253q-148 61 -254 350q-52 143 -107 382q-133 -645 -333 -739v235q131 76 222 348q61 186 88 401h50q26 -200 104 -395q104 -262 245 -329z" />
    <glyph glyph-name="U0669" unicode="&#x669;" horiz-adv-x="939" 
d="M761 211l-29 -243q-103 52 -140 279q-12 77 -27 293q-89 -74 -183 -74q-81 0 -128 49.5t-47 130.5q0 54 32 136q87 226 223 226q90 0 127 -75q22 -45 31 -148l24 -291q21 -246 117 -283zM542 692q-22 127 -129 127q-48 0 -88 -21q-47 -24 -47 -62q0 -40 44 -65
q39 -22 87 -22q61 0 133 43z" />
    <glyph glyph-name="U0670" unicode="&#x670;" horiz-adv-x="0" 
d="M123 110q0 -43 -45 -118l-3 -6l-34 6q12 45 12 58q0 51 -29 147.5t-29 147.5q0 39 72 121q2 -85 29 -196.5t27 -159.5z" />
    <glyph glyph-name="U0700" unicode="&#x700;" horiz-adv-x="1084" 
d="M708 639l-164 -162l-162 162l162 162zM945 401l-163 -163l-162 163l162 162zM469 401l-163 -163l-163 163l163 162zM707 162l-163 -162l-162 162l162 163z" />
    <glyph glyph-name="U0701" unicode="&#x701;" horiz-adv-x="543" 
d="M396 908q0 -48 -39 -95.5t-84 -47.5t-84 47.5t-39 95.5t39 95.5t84 47.5t84 -47.5t39 -95.5z" />
    <glyph glyph-name="U0702" unicode="&#x702;" horiz-adv-x="543" 
d="M396 -142q0 -48 -39 -95.5t-84 -47.5t-84 47.5t-39 95.5t39 95.5t84 47.5t84 -47.5t39 -95.5z" />
    <glyph glyph-name="U0703" unicode="&#x703;" horiz-adv-x="543" 
d="M396 1258q0 -48 -39 -95.5t-84 -47.5t-84 47.5t-39 95.5t39 95.5t84 47.5t84 -47.5t39 -95.5zM396 828q0 -48 -39 -95.5t-84 -47.5t-84 47.5t-39 95.5t39 95.5t84 47.5t84 -47.5t39 -95.5z" />
    <glyph glyph-name="U0704" unicode="&#x704;" horiz-adv-x="543" 
d="M396 -142q0 -48 -39 -95.5t-84 -47.5t-84 47.5t-39 95.5t39 95.5t84 47.5t84 -47.5t39 -95.5zM396 -572q0 -48 -39 -95.5t-84 -47.5t-84 47.5t-39 95.5t39 95.5t84 47.5t84 -47.5t39 -95.5z" />
    <glyph glyph-name="U0705" unicode="&#x705;" horiz-adv-x="914" 
d="M766 908q0 -48 -39 -95.5t-84 -47.5t-84 47.5t-39 95.5t39 95.5t84 47.5t84 -47.5t39 -95.5zM396 908q0 -48 -39 -95.5t-84 -47.5t-84 47.5t-39 95.5t39 95.5t84 47.5t84 -47.5t39 -95.5z" />
    <glyph glyph-name="U0706" unicode="&#x706;" horiz-adv-x="798" 
d="M398 738q0 -47 -39 -95t-84 -48t-84 48t-39 95q0 48 39 96t84 48t84 -48t39 -96zM648 111q0 -47 -39 -95t-84 -48t-84 48t-39 95q0 48 39 96t84 48t84 -48t39 -96z" />
    <glyph glyph-name="U0707" unicode="&#x707;" horiz-adv-x="798" 
d="M648 738q0 -47 -39 -95t-84 -48t-84 48t-39 95q0 48 39 96t84 48t84 -48t39 -96zM398 111q0 -47 -39 -95t-84 -48t-84 48t-39 95q0 48 39 96t84 48t84 -48t39 -96z" />
    <glyph glyph-name="U0708" unicode="&#x708;" horiz-adv-x="791" 
d="M396 1272q0 -48 -39 -96t-84 -48t-84 48t-39 96t39 95.5t84 47.5t84 -47.5t39 -95.5zM641 830q0 -47 -39 -95t-84 -48t-84 48t-39 95q0 48 39 96t84 48t84 -48t39 -96z" />
    <glyph glyph-name="U0709" unicode="&#x709;" horiz-adv-x="791" 
d="M396 142q0 -48 -39 -96t-84 -48t-84 48t-39 96t39 95.5t84 47.5t84 -47.5t39 -95.5zM641 -300q0 -47 -39 -95t-84 -48t-84 48t-39 95q0 48 39 96t84 48t84 -48t39 -96z" />
    <glyph glyph-name="U070a" unicode="&#x70a;" horiz-adv-x="1275" 
d="M1124 1027h-970v168h204l56 61v179h87v-174l63 -66h155l65 72v173h87v-190l54 -55h199v-168zM771 544h-216v244h216v-244zM771 0h-216v244h216v-244z" />
    <glyph glyph-name="U070b" unicode="&#x70b;" horiz-adv-x="1249" 
d="M1101 819h-951v75h951v-75zM668 663h-92v92h92v-92z" />
    <glyph glyph-name="U070c" unicode="&#x70c;" horiz-adv-x="1023" 
d="M874 401h-199l72 74l-602 603l54 52l602 -601l73 75v-203z" />
    <glyph glyph-name="U070d" unicode="&#x70d;" horiz-adv-x="1026" 
d="M746 531q-33 -32 -65 0q-31 32 1 64t64 0q15 -16 15 -32t-15 -32zM542 735q-32 -32 -64 -1q-32 32 0 65q32 31 64 0q32 -32 0 -64zM799 333l-57 -57l-229 228l-228 -228l-57 57l228 228l-228 229l57 56l228 -228l229 228l57 -56l-229 -229zM351 537q-32 -32 -64 0t0 64
t64 0t0 -64zM549 335q-32 -33 -64 -1t0 64t64 0q32 -31 0 -63z" />
    <glyph glyph-name="U070f" unicode="&#x70f;" horiz-adv-x="41" 
d="M221 1342q0 -44 -43 -44q-26 0 -38 22h-85q-5 -10 -14 -15v-1421h-41v1418q-13 5 -20 18h-85q-12 -22 -38 -22q-43 0 -43 44q0 43 43 43q31 0 42 -29h77q11 29 42 29q30 0 41 -29h77q11 29 42 29q43 0 43 -43z" />
    <glyph glyph-name="U0710" unicode="&#x710;" horiz-adv-x="586" 
d="M570 104q0 -104 -62 -104h-346q-38 0 -38 44v138q53 33 130 115q99 105 99 167q0 49 -10 64q-169 23 -169 123q0 41 32 76t78 35q139 0 139 -216q0 -124 -11 -176q-18 -80 -82 -162h178q19 0 39 -29q23 -33 23 -75z" />
    <glyph glyph-name="U0711" unicode="&#x711;" horiz-adv-x="0" 
d="M335 78q0 -78 -47 -78h-259q-29 0 -29 33v91q172 178 172 209v61q-40 11 -79 23q-62 24 -56 71q4 31 28 56.5t55 25.5q104 0 104 -161q0 -92 -8 -131q-14 -61 -62 -122h134q14 0 30.5 -23t16.5 -55z" />
    <glyph glyph-name="U0712" unicode="&#x712;" horiz-adv-x="1058" 
d="M1053 0h-783q-56 0 -102.5 69t-46.5 147q0 57 61 145q0 -153 55 -153h606v184h-303q-89 0 -89 78v199q39 -31 132 -52q80 -17 143 -17q53 0 135 15q109 21 148 54v-354q0 -16 22 -64.5t22 -80.5v-170z" />
    <glyph glyph-name="U0713" unicode="&#x713;" horiz-adv-x="1245" 
d="M1424 -383h-179v177q0 48 -56 124q-60 82 -113 82h-806q-56 0 -102.5 69t-46.5 147q0 57 61 145q0 -153 55 -153h590q-41 78 -195 290q-132 183 -132 206q0 39 81 142q72 91 145 159q-5 -32 -5 -70q0 -162 121 -376q67 -119 251 -370q61 -104 122 -207q88 -148 126 -148
h83v-217z" />
    <glyph glyph-name="U0714" unicode="&#x714;" horiz-adv-x="1245" 
d="M1424 -383h-179v177q0 49 -56 124q-60 82 -113 82h-806q-56 0 -102.5 69t-46.5 147q0 57 61 145q0 -153 55 -153h274l166 228q-177 246 -177 268q0 39 81 142q72 91 145 159q-5 -32 -5 -70q0 -162 121 -376q67 -119 251 -370q61 -104 122 -207q88 -148 126 -148h83v-217z
M827 208q-31 58 -101 159l-116 -159h217z" />
    <glyph glyph-name="U0715" unicode="&#x715;" horiz-adv-x="596" 
d="M596 0h-472v208h298v55q0 154 -139 154q-69 0 -159 -43v202q66 49 171 49q142 0 229 -121q72 -101 72 -217v-287zM521 -305h-256v202h256v-202z" />
    <glyph glyph-name="U0716" unicode="&#x716;" horiz-adv-x="596" 
d="M596 0h-472v208h298v55q0 154 -139 154q-69 0 -159 -43v202q66 49 171 49q142 0 229 -121q72 -101 72 -217v-287z" />
    <glyph glyph-name="U0717" unicode="&#x717;" horiz-adv-x="884" 
d="M884 290q0 -324 -42 -406q-40 188 -40 406v102h-151q-30 -52 -29 -144q0 -13 1 -47q1 -29 1 -45q0 -156 -210 -156q-290 0 -290 301q0 197 91 261q55 38 190 38h130q211 0 349 95v-405zM540 392h-250q0 -97 43 -146q33 -38 81 -38q84 0 112 61q16 38 14 123z" />
    <glyph glyph-name="U0718" unicode="&#x718;" horiz-adv-x="718" 
d="M718 0h-389q-74 0 -139.5 81t-65.5 173q0 148 94 261q90 110 199 110q105 0 205 -106q96 -102 96 -197v-322zM552 295q0 40 -40.5 81t-84.5 41q-54 0 -85.5 -34t-31.5 -88q0 -87 133 -87q44 0 76.5 23.5t32.5 63.5z" />
    <glyph glyph-name="U0719" unicode="&#x719;" horiz-adv-x="503" 
d="M503 208q0 -153 -26 -243q-30 -102 -120 -224q0 26 6.5 107t5.5 126q0 10 -4 52q-112 67 -144 99q-97 95 -97 236q0 81 34 149q45 90 128 90q113 0 172 -148q45 -112 45 -244z" />
    <glyph glyph-name="U071a" unicode="&#x71a;" horiz-adv-x="1099" 
d="M1099 0h-89l-116 106v-106h-121q-62 0 -169 106v-106h-334q-56 0 -102.5 69t-46.5 147q0 57 61 145q0 -153 55 -153h251v245q90 -52 282 -231v231q116 -95 329 -245v-208z" />
    <glyph glyph-name="U071b" unicode="&#x71b;" horiz-adv-x="1447" 
d="M1447 0q-32 -60 -127 -205q-99 -153 -156 -227l-273 432h-621q-56 0 -102.5 69t-46.5 147q0 57 61 145q0 -153 55 -153h535q-161 260 -177 289q-74 128 -74 175q0 75 106 138q111 55 223 111q-67 -71 -67 -154q0 -73 87 -276q68 -158 136 -283h441v-208zM1327 0h-220
q46 -79 114 -188q35 49 106 188z" />
    <glyph glyph-name="U071c" unicode="&#x71c;" horiz-adv-x="1447" 
d="M1447 0q-32 -60 -127 -205q-99 -153 -156 -227l-273 432h-621q-56 0 -102.5 69t-46.5 147q0 57 61 145q0 -153 55 -153h535q-161 260 -177 289q-74 128 -74 175q0 75 106 138q111 55 223 111q-67 -71 -67 -154q0 -73 87 -276q68 -158 136 -283h441v-208zM1327 0h-220
q46 -79 114 -188q35 49 106 188zM1260 -63q0 -36 -37 -36q-36 0 -36 36q0 37 36 37q37 0 37 -37z" />
    <glyph glyph-name="U071d" unicode="&#x71d;" horiz-adv-x="823" 
d="M823 0l-68 34q-52 27 -97 72v-106h-388q-56 0 -102.5 69t-46.5 147q0 57 61 145q0 -153 55 -153h305v245q90 -52 281 -231v-222z" />
    <glyph glyph-name="U071e" unicode="&#x71e;" horiz-adv-x="1513" 
d="M604 1092q0 -34 -27.5 -67.5t-59.5 -33.5q-31 0 -59 33.5t-28 67.5t28 67.5t59 33.5q32 0 59.5 -33.5t27.5 -67.5zM716 817q0 -34 -27.5 -68t-59.5 -34t-59.5 34t-27.5 68t27.5 67.5t59.5 33.5t59.5 -33.5t27.5 -67.5zM492 817q0 -34 -27.5 -68t-58.5 -34q-32 0 -59.5 34
t-27.5 68t27.5 67.5t59.5 33.5q31 0 58.5 -33.5t27.5 -67.5zM1513 0q-35 17 -69 34q-51 27 -97 72v-106h-477q-10 -82 -28 -116q-40 188 -40 406v102h-151q-30 -52 -29 -144q0 -13 1 -47q1 -29 1 -45q0 -156 -210 -156q-290 0 -290 301q0 197 91 261q55 38 190 38h130
q211 0 349 95v-405q0 -43 -1 -82h348v245q90 -52 282 -231v-222zM604 -326q0 -34 -27.5 -67.5t-59.5 -33.5q-31 0 -59 33.5t-28 67.5t28 68t59 34q32 0 59.5 -34t27.5 -68zM540 392h-250q0 -97 43 -146q33 -38 81 -38q84 0 112 61q16 38 14 123z" />
    <glyph glyph-name="U071f" unicode="&#x71f;" horiz-adv-x="852" 
d="M852 105q0 -69 -69 -322q-59 -213 -97 -319q12 351 12 365q0 323 -129 323q-37 0 -108 -103q-54 -78 -85 -142q-59 37 -155.5 222.5t-96.5 263.5q0 51 95 176q64 84 83 101q39 35 96 35h104q87 0 129 33l74 74q0 -13 1 -46v-51q0 -218 -128 -218h-104q-52 0 -95.5 -34
t-43.5 -77q0 -28 34 -80q26 -38 53 -75q48 38 97 77q67 52 101 52q94 0 166 -89q66 -81 66 -166z" />
    <glyph glyph-name="U0720" unicode="&#x720;" horiz-adv-x="1240" 
d="M1240 0h-970q-56 0 -102.5 69t-46.5 147q0 57 61 145q0 -153 55 -153h720q-40 64 -259 381q-168 243 -168 269q0 39 81 142q72 91 145 159q-5 -32 -5 -97q0 -97 199 -493q145 -284 290 -569z" />
    <glyph glyph-name="U0721" unicode="&#x721;" horiz-adv-x="1033" 
d="M1033 0h-567q-52 -97 -162 -264q43 253 212 652h-302q-90 0 -90 78v199q82 -65 213 -65h454q141 0 218 65q-30 -141 -30 -199q0 -47 27 -157t27 -139v-170zM813 208v180h-172q-67 -149 -83 -180h255z" />
    <glyph glyph-name="U0722" unicode="&#x722;" horiz-adv-x="785" 
d="M983 -382q-6 -18 -35 -59q-158 160 -316 321q-188 190 -218 190q-24 0 -59 -35t-68 -35q-43 0 -103 65t-60 109q0 39 49 95t90 56q37 0 318 -280q262 -262 402 -427z" />
    <glyph glyph-name="U0723" unicode="&#x723;" horiz-adv-x="1126" 
d="M1121 240q0 -240 -156 -240h-217q-101 0 -174 64q-56 -64 -122 -64h-182q-56 0 -102.5 69t-46.5 147q0 57 61 145q0 -153 55 -153h200q-39 63 -39 169q0 133 84 207q65 57 139 57q87 0 133 -48q12 -12 55 -86q47 47 118 47q108 0 159 -124q35 -84 35 -190zM962 278
q-8 97 -61 97q-15 0 -63 -14q-22 -24 -87 -153h176q40 0 35 70zM727 336q0 97 -80 97q-83 0 -83 -75q0 -86 108 -132q30 31 46 81z" />
    <glyph glyph-name="U0724" unicode="&#x724;" horiz-adv-x="848" 
d="M847 240q0 -240 -156 -240h-217q-56 0 -110 22q-133 -188 -168 -188q-21 0 -21 24q0 27 121 201q-77 53 -124.5 140.5t-47.5 177.5q0 133 84 207q65 57 139 57q87 0 133 -48q12 -12 55 -86q47 47 118 47q108 0 159 -124q35 -84 35 -190zM688 278q-8 97 -61 97
q-15 0 -63 -14q-21 -24 -87 -153h176q40 0 35 70zM454 336q4 97 -81 97q-83 0 -83 -75q0 -86 108 -132q30 31 46 81z" />
    <glyph glyph-name="U0725" unicode="&#x725;" horiz-adv-x="1241" 
d="M1241 235q0 -94 -76.5 -164.5t-174.5 -70.5q-71 0 -172 91q-76 -91 -168 -91h-380q-56 0 -102.5 69t-46.5 147q0 57 61 145q0 -153 55 -153h457q-41 37 -149 179q-117 154 -117 185q0 38 81 142q72 91 145 158q-5 -31 -5 -69q0 -169 146.5 -382t263.5 -213q113 0 116 120
q0 14 -3 40l44 -56q25 -37 25 -77z" />
    <glyph glyph-name="U0726" unicode="&#x726;" horiz-adv-x="1008" 
d="M1008 161q0 -64 -37 -109q-43 -52 -116 -52h-585q-56 0 -102.5 69t-46.5 147q0 57 61 145q0 -153 55 -153h585q-20 90 -50 122t-87 32h-125q-74 0 -130 58.5t-56 134.5q0 118 98 180q31 20 194 78q116 41 141 101q15 -43 108 -387q93 -349 93 -366zM756 458
q-15 59 -31 118q-23 71 -57 71q-44 0 -81 -18q-47 -23 -47 -62q0 -109 112 -109h104z" />
    <glyph glyph-name="U0727" unicode="&#x727;" horiz-adv-x="1008" 
d="M1011 216q0 -78 -46.5 -147t-102.5 -69h-585q-73 0 -115 52q-38 45 -38 109q0 17 94 366q92 344 107 387q26 -60 142 -101q162 -58 193 -78q98 -62 98 -180q0 -76 -55.5 -134.5t-130.5 -58.5h-125q-57 0 -87 -32t-50 -122h585q55 0 55 153q61 -88 61 -145zM592 567
q0 39 -46 62q-38 18 -82 18q-34 0 -57 -71q-16 -59 -31 -118h104q112 0 112 109z" />
    <glyph glyph-name="U0728" unicode="&#x728;" horiz-adv-x="681" 
d="M632 -284l-27 -126h-529q55 52 182 52h70q77 0 119 24q-163 88 -239 183q-84 105 -84 247q0 73 53 232q120 -120 189 -120q39 0 86 43q37 38 74 77q38 -19 69 -61q34 -45 34 -87v-152q-28 11 -80 45q-8 -3 -65 -44q-40 -29 -78 -29q-24 0 -52 10t-40 10q-14 0 -30 -8
q49 -64 164 -148q136 -99 184 -148z" />
    <glyph glyph-name="U0729" unicode="&#x729;" horiz-adv-x="1016" 
d="M1016 0h-420q-44 0 -72 18q-18 16 -37 32q-16 -50 -72 -50h-145q-56 0 -102.5 69t-46.5 147q0 57 61 145q0 -153 55 -153h241v427q50 -32 138 -53q76 -18 127 -18q155 0 273 71v-635zM867 208v189h-248v-189h248z" />
    <glyph glyph-name="U072a" unicode="&#x72a;" horiz-adv-x="596" 
d="M466 722h-256v202h256v-202zM596 0h-472v208h298v55q0 154 -139 154q-69 0 -159 -43v202q66 49 171 49q142 0 229 -121q72 -101 72 -217v-287z" />
    <glyph glyph-name="U072b" unicode="&#x72b;" horiz-adv-x="1157" 
d="M1157 0h-266q-45 0 -72 18q-19 16 -37 32q-16 -50 -72 -50h-440q-56 0 -102.5 69t-46.5 147q0 57 61 145q0 -153 55 -153h471v150q0 16 -103 49.5t-103 66.5v191q83 -65 280 -65q71 0 155 15q102 19 140 50v-191q0 -33 -102.5 -66.5t-102.5 -49.5v-77q0 -73 91 -73h194
v-208z" />
    <glyph glyph-name="U072c" unicode="&#x72c;" horiz-adv-x="844" 
d="M843 -29l-496 487q-58 -58 -58 -116q0 -68 52 -98q63 -26 127 -51q34 -15 76 -80q35 -57 69 -114q-65 0 -152 88q-28 -10 -102 -56q-61 -38 -93 -38q-142 0 -142 151q0 50 66 228q68 186 155 364q147 -126 498 -471v-294z" />
    <glyph glyph-name="U0730" unicode="&#x730;" horiz-adv-x="0" 
d="M658 423l-602 -423l-50 64l87 61l66 379l378 -67l72 50zM459 382l-241 43l-47 -243z" />
    <glyph glyph-name="U0731" unicode="&#x731;" horiz-adv-x="0" 
d="M651 -64l-87 -61l-66 -379l-378 67l-72 -50l-49 64l602 423zM486 -182l-288 -200l241 -43z" />
    <glyph glyph-name="U0732" unicode="&#x732;" horiz-adv-x="0" 
d="M383 1167q0 -48 -13 -84t-49 -78q-42 -49 -74 -49q-43 0 -43 100q0 48 13 84t49 78q42 49 74 49q43 0 43 -100zM184 -98q0 -49 -13 -85t-50 -78q-42 -49 -74 -49q-43 0 -43 100q0 49 13 85t50 78q42 49 74 49q43 0 43 -100z" />
    <glyph glyph-name="U0733" unicode="&#x733;" horiz-adv-x="0" 
d="M369 461q0 -145 -131 -266q-119 -97 -238 -195l26 99q48 31 100 83q-70 121 -70 228q0 83 51 145q54 67 136 67q57 0 93 -53q33 -48 33 -108zM300 469q0 78 -62 78q-103 0 -103 -119q0 -87 56 -183q109 124 109 224z" />
    <glyph glyph-name="U0734" unicode="&#x734;" horiz-adv-x="0" 
d="M369 2l-26 -99q-48 -31 -100 -82q69 -122 69 -228q0 -84 -50 -146q-54 -66 -136 -66q-57 0 -94 53q-32 47 -32 107q0 146 131 266q119 98 238 195zM234 -425q0 87 -56 183q-109 -124 -109 -225q0 -78 62 -78q103 0 103 120z" />
    <glyph glyph-name="U0735" unicode="&#x735;" horiz-adv-x="0" 
d="M483 100q0 -100 -44 -100q-31 0 -74 49q-36 42 -49 78t-13 84q0 100 43 100q32 0 74 -49q36 -42 49.5 -78t13.5 -84zM180 216q0 -100 -44 -100q-31 0 -74 49q-36 42 -49 78t-13 84q0 100 43 100q32 0 74 -49q36 -42 49.5 -78t13.5 -84z" />
    <glyph glyph-name="U0736" unicode="&#x736;" horiz-adv-x="0" 
d="M504 247q0 -65 -19 -147l-85 -84q26 102 26 172q0 114 -64 181l-212 -369l-74 44l215 375q-46 18 -100 18q-126 0 -258 -88q85 88 135 120q77 49 172 49q121 0 192.5 -75t71.5 -196z" />
    <glyph glyph-name="U0737" unicode="&#x737;" horiz-adv-x="0" 
d="M501 -350q-85 -88 -135 -120q-77 -49 -172 -49q-121 0 -192.5 75t-71.5 196q0 65 19 147l85 84q-26 -102 -26 -172q0 -114 64 -181l212 369l75 -44l-216 -374q47 -19 101 -19q125 0 257 88z" />
    <glyph glyph-name="U0738" unicode="&#x738;" horiz-adv-x="0" 
d="M490 -106q0 -49 -13 -85t-50 -78q-42 -49 -74 -49q-43 0 -43 100q0 49 13 85t50 78q42 49 74 49q43 0 43 -100zM190 -106q0 -49 -13 -85t-50 -78q-42 -49 -74 -49q-43 0 -43 100q0 49 13 85t50 78q42 49 74 49q43 0 43 -100z" />
    <glyph glyph-name="U0739" unicode="&#x739;" horiz-adv-x="0" 
d="M490 -106q0 -49 -13 -85t-50 -78q-42 -49 -74 -49q-43 0 -43 100q0 49 13 85t50 78q42 49 74 49q43 0 43 -100zM190 -236q0 -49 -13 -85t-50 -78q-42 -49 -74 -49q-43 0 -43 100q0 49 13 85t50 78q42 49 74 49q43 0 43 -100z" />
    <glyph glyph-name="U073a" unicode="&#x73a;" horiz-adv-x="0" 
d="M489 0h-550v85h223v114h-223v85h550v-85h-222v-114h222v-85z" />
    <glyph glyph-name="U073b" unicode="&#x73b;" horiz-adv-x="0" 
d="M489 -284h-550v85h222v114h-222v85h550v-85h-223v-114h223v-85z" />
    <glyph glyph-name="U073c" unicode="&#x73c;" horiz-adv-x="0" 
d="M190 -106q0 -49 -13 -85t-50 -78q-42 -49 -74 -49q-43 0 -43 100q0 49 13 85t50 78q42 49 74 49q43 0 43 -100z" />
    <glyph glyph-name="U073d" unicode="&#x73d;" horiz-adv-x="0" 
d="M530 123l-74 -51l-214 308l-255 -179l-49 69l533 374l49 -71l-207 -142zM334 133q0 -53 -38.5 -92t-91.5 -39t-92 39t-39 92t39 91.5t92 38.5q52 0 91 -39t39 -91zM268 133q0 66 -64 66q-67 0 -67 -66q0 -64 67 -64q64 0 64 64z" />
    <glyph glyph-name="U073e" unicode="&#x73e;" horiz-adv-x="0" 
d="M387 -136q0 -53 -39 -91.5t-92 -38.5q-52 0 -91 39t-39 91q0 53 38.5 92t91.5 39t92 -39t39 -92zM522 -273l-533 -374l-49 71l207 142l-217 308l74 51l214 -308l255 179zM323 -136q0 64 -67 64q-64 0 -64 -64q0 -66 64 -66q67 0 67 66z" />
    <glyph glyph-name="U073f" unicode="&#x73f;" horiz-adv-x="0" 
d="M177 210q0 -49 -13 -85t-50 -78q-42 -49 -74 -49q-43 0 -43 100q0 49 13 85t50 78q42 49 74 49q43 0 43 -100z" />
    <glyph glyph-name="U0740" unicode="&#x740;" horiz-adv-x="0" 
d="M434 -202h-179v202h179v-202zM179 -202h-179v202h179v-202z" />
    <glyph glyph-name="U0741" unicode="&#x741;" horiz-adv-x="0" 
d="M179 0h-179v202h179v-202z" />
    <glyph glyph-name="U0742" unicode="&#x742;" horiz-adv-x="0" 
d="M179 -202h-179v202h179v-202z" />
    <glyph glyph-name="U0743" unicode="&#x743;" horiz-adv-x="0" 
d="M179 273h-179v202h179v-202zM179 0h-179v202h179v-202z" />
    <glyph glyph-name="U0744" unicode="&#x744;" horiz-adv-x="0" 
d="M179 -202h-179v202h179v-202zM179 -475h-179v202h179v-202z" />
    <glyph glyph-name="U0745" unicode="&#x745;" horiz-adv-x="0" 
d="M310 268h-179v202h179v-202zM434 0h-179v202h179v-202zM179 0h-179v202h179v-202z" />
    <glyph glyph-name="U0746" unicode="&#x746;" horiz-adv-x="0" 
d="M434 -202h-179v202h179v-202zM179 -202h-179v202h179v-202zM310 -470h-179v202h179v-202z" />
    <glyph glyph-name="U0747" unicode="&#x747;" horiz-adv-x="0" 
d="M306 264l-297 -298l-43 43l297 298z" />
    <glyph glyph-name="U0748" unicode="&#x748;" horiz-adv-x="0" 
d="M309 -264l-43 -43l-296 298l43 43z" />
    <glyph glyph-name="U0749" unicode="&#x749;" horiz-adv-x="0" 
d="M823 10l-32 -54l-197 113l-74 -129l-59 34l75 131l-51 28l-75 -129l-59 33l74 130l-51 30l-74 -129l-59 34l75 129l-51 30l-75 -131l-59 34l74 131l-51 28l-74 -129l-59 34l75 131l-186 106l31 54l185 -108l72 125l60 -34l-71 -125l49 -28l73 125l59 -34l-72 -125l50 -30
l72 125l60 -34l-73 -125l51 -30l73 126l59 -34l-73 -126l51 -30l72 125l60 -34l-73 -125z" />
    <glyph glyph-name="U074a" unicode="&#x74a;" horiz-adv-x="0" 
d="M365 335q0 -35 -35 -35q-33 0 -33 35q0 34 33 34q35 0 35 -34zM154 332q0 -34 -33 -34q-34 0 -34 34q0 35 34 35q33 0 33 -35zM365 115q0 -35 -35 -35q-33 0 -33 35q0 34 33 34q35 0 35 -34zM499 192h-247v-247h-62v247h-244v62h244v245h62v-245h247v-62zM154 115
q0 -35 -36 -35q-34 0 -34 35q0 34 34 34q36 0 36 -34z" />
    <glyph glyph-name="U1e06" unicode="&#x1e06;" horiz-adv-x="1284" 
d="M1134 321q0 -136 -104 -230q-100 -91 -238 -91l-586 -1q-56 0 -56 42q0 43 56 43h71v1002h-71q-56 0 -56 43q0 42 56 42l486 -1q141 0 243 -80q111 -86 111 -223q0 -154 -165 -249q253 -91 253 -297zM949 -243q0 -42 -54 -42h-491q-53 0 -53 42q0 43 56 43h486
q56 0 56 -43zM961 874q0 96 -89 157q-78 55 -178 55h-333v-436h297q118 0 202 52q101 61 101 172zM1049 319q0 64 -44 124q-91 122 -342 122h-302v-481h425q104 0 181 65q82 68 82 170z" />
    <glyph glyph-name="U1e07" unicode="&#x1e07;" horiz-adv-x="1229" 
d="M1127 375q0 -176 -123.5 -298t-299.5 -122q-218 0 -347 178v-133h-155q-56 0 -56 42q0 43 56 43h71v1079h-71q-56 0 -56 43q0 42 56 42h155l1 -632q129 177 346 177q176 0 299.5 -122t123.5 -297zM989 -243q0 -42 -54 -42h-491q-53 0 -53 42q0 43 56 43h486q56 0 56 -43z
M1051 375q0 144 -102 243.5t-246 99.5q-143 0 -245 -100t-102 -243q0 -144 101.5 -243.5t245.5 -99.5q145 0 246.5 99.5t101.5 243.5z" />
    <glyph glyph-name="U1e0c" unicode="&#x1e0c;" horiz-adv-x="1283" 
d="M1134 527q0 -207 -133 -363q-139 -164 -343 -164l-452 -1q-17 2 -43 12q-13 12 -13 30q0 43 56 43h71v1000h-71q-56 0 -56 43q0 42 56 42l452 1q316 0 447 -345q29 -76 29 -298zM692 -277q0 -32 -22.5 -54.5t-54.5 -22.5t-54.5 22.5t-22.5 54.5t22.5 54.5t54.5 22.5
t54.5 -22.5t22.5 -54.5zM1050 509v152q0 159 -111 289q-116 136 -273 136h-305v-1002h305q155 0 272 136q112 131 112 289z" />
    <glyph glyph-name="U1e0d" unicode="&#x1e0d;" horiz-adv-x="1229" 
d="M1130 42q0 -42 -56 -42h-155v133q-129 -178 -347 -178q-176 0 -299.5 122t-123.5 298q0 175 123.5 297t299.5 122q217 0 346 -177l1 547h-71q-56 0 -56 43q0 42 56 42l155 -1v-1163h71q56 0 56 -43zM661 -277q0 -32 -22.5 -54.5t-54.5 -22.5t-54.5 22.5t-22.5 54.5
t22.5 54.5t54.5 22.5t54.5 -22.5t22.5 -54.5zM920 375q0 143 -102 243t-245 100q-144 0 -246 -99.5t-102 -243.5t101.5 -243.5t246.5 -99.5q144 0 245.5 99.5t101.5 243.5z" />
    <glyph glyph-name="U1e0e" unicode="&#x1e0e;" horiz-adv-x="1283" 
d="M1134 527q0 -207 -133 -363q-139 -164 -343 -164l-452 -1q-17 2 -43 12q-13 12 -13 30q0 43 56 43h71v1000h-71q-56 0 -56 43q0 42 56 42l452 1q316 0 447 -345q29 -76 29 -298zM949 -243q0 -42 -54 -42h-491q-53 0 -53 42q0 43 56 43h486q56 0 56 -43zM1050 509v152
q0 159 -111 289q-116 136 -273 136h-305v-1002h305q155 0 272 136q112 131 112 289z" />
    <glyph glyph-name="U1e0f" unicode="&#x1e0f;" horiz-adv-x="1229" 
d="M1130 42q0 -42 -56 -42h-155v133q-129 -178 -347 -178q-176 0 -299.5 122t-123.5 298q0 175 123.5 297t299.5 122q217 0 346 -177l1 547h-71q-56 0 -56 43q0 42 56 42l155 -1v-1163h71q56 0 56 -43zM929 -243q0 -42 -54 -42h-491q-53 0 -53 42q0 43 56 43h486
q56 0 56 -43zM920 375q0 143 -102 243t-245 100q-144 0 -246 -99.5t-102 -243.5t101.5 -243.5t246.5 -99.5q144 0 245.5 99.5t101.5 243.5z" />
    <glyph glyph-name="U1e24" unicode="&#x1e24;" horiz-adv-x="1278" 
d="M1130 41q0 -42 -56 -42h-226q-56 0 -56 42q0 43 56 43h70v482h-557v-482h71q56 0 56 -43q0 -42 -56 -42h-226q-56 0 -56 42q0 43 56 43h71v1002h-71q-56 0 -56 43q0 42 56 42h226q56 0 56 -42q0 -43 -56 -43h-71v-436h557l1 436h-71q-56 0 -56 43q0 42 56 42h226
q56 0 56 -42q0 -43 -56 -43h-71v-1002h71q56 0 56 -43zM722 -277q0 -32 -22.5 -54.5t-54.5 -22.5t-54.5 22.5t-22.5 54.5t22.5 54.5t54.5 22.5t54.5 -22.5t22.5 -54.5z" />
    <glyph glyph-name="U1e25" unicode="&#x1e25;" horiz-adv-x="1284" 
d="M1134 41q0 -42 -56 -42h-226q-56 0 -56 42q0 43 56 43h71l-1 385q0 102 -75 160q-68 53 -173 53q-97 0 -177 -60q-38 -29 -135 -136v-402h71q56 0 56 -43q0 -42 -56 -42h-226q-56 0 -56 42q0 43 56 43h71v1086h-71q-56 0 -56 43q0 42 56 42h155v-647q145 158 318 158
q134 0 227 -77q100 -82 100 -214v-391h71q56 0 56 -43zM732 -277q0 -32 -22.5 -54.5t-54.5 -22.5t-54.5 22.5t-22.5 54.5t22.5 54.5t54.5 22.5t54.5 -22.5t22.5 -54.5z" />
    <glyph glyph-name="U1e34" unicode="&#x1e34;" horiz-adv-x="1320" 
d="M1170 41q0 -42 -56 -42l-266 1q-56 0 -56 42q0 43 56 43h71l-408 525l-169 -152v-374h71q56 0 56 -43q0 -42 -56 -42h-226q-56 0 -56 42q0 43 56 43h71v1002h-71q-56 0 -56 43q0 42 56 42h226q56 0 56 -42q0 -43 -56 -43h-71v-517l580 517h-71q-56 0 -56 43q0 42 56 42
h263q56 0 56 -42q0 -43 -56 -43h-71l-462 -413l462 -589h71q56 0 56 -43zM929 -243q0 -42 -54 -42h-492q-52 0 -52 42q0 43 56 43h486q56 0 56 -43z" />
    <glyph glyph-name="U1e35" unicode="&#x1e35;" horiz-adv-x="1214" 
d="M1065 41q0 -42 -56 -42h-258q-56 0 -56 42q0 43 56 43h71l-361 371l-96 -81l1 -290h71q56 0 56 -43q0 -42 -56 -42h-228q-56 0 -56 42q0 43 56 43h71l1 1086h-71q-56 0 -56 43q0 42 56 42h155v-774l357 300h-71q-56 0 -56 43q0 42 56 42h271q56 0 56 -42q0 -43 -56 -43
h-71l-328 -274l415 -423h71q56 0 56 -43zM885 -243q0 -42 -54 -42h-492q-52 0 -52 42q0 43 56 43h486q56 0 56 -43z" />
    <glyph glyph-name="U1e62" unicode="&#x1e62;" horiz-adv-x="1229" 
d="M1044 314q0 -165 -134 -261q-120 -86 -291 -86q-219 0 -350 137q0 -58 -1 -65q-7 -39 -41 -39q-42 0 -42 56v232q0 57 42 57q18 0 30 -12q9 -38 19 -76q19 -72 92 -130q93 -76 251 -76q134 0 230 64q111 74 111 202q0 157 -190 214q-176 42 -352 85q-190 70 -190 259
q0 149 121 240q109 82 263 82q176 0 303 -111q0 84 42 84t42 -56v-214q0 -56 -42 -56q-18 0 -29 12l-19 71q-16 66 -80 119q-82 67 -214 67q-119 0 -205 -59q-98 -67 -98 -181q0 -150 190 -203l352 -82q190 -73 190 -274zM702 -277q0 -32 -22.5 -54.5t-54.5 -22.5
t-54.5 22.5t-22.5 54.5t22.5 54.5t54.5 22.5t54.5 -22.5t22.5 -54.5z" />
    <glyph glyph-name="U1e63" unicode="&#x1e63;" horiz-adv-x="1034" 
d="M886 215q0 -126 -127 -193q-102 -54 -239 -54q-180 0 -294 91q0 -62 -38 -62t-38 51v156q0 51 38 51q29 0 39 -43q14 -60 20 -68q72 -101 270 -101q103 0 185 35q108 47 108 137q0 109 -161 146q-150 27 -299 54q-161 46 -161 179q0 107 114 166q91 46 210 46
q157 0 255 -77q0 50 38 50q39 0 39 -51v-130q0 -51 -39 -51q-27 0 -38 45q-15 58 -56 87q-72 50 -196 50q-84 0 -155 -28q-95 -38 -95 -110q0 -80 118 -109l246 -40q154 -30 213 -106q43 -56 43 -121zM602 -277q0 -32 -22.5 -54.5t-54.5 -22.5t-54.5 22.5t-22.5 54.5
t22.5 54.5t54.5 22.5t54.5 -22.5t22.5 -54.5z" />
    <glyph glyph-name="U1e6c" unicode="&#x1e6c;" horiz-adv-x="1241" 
d="M1091 1014q0 -56 -42 -56q-44 0 -43 56l1 71h-344v-1002h71q56 0 56 -43q0 -42 -56 -42h-226q-56 0 -56 42q0 43 56 43h71l-1 1002h-344l1 -71q1 -56 -43 -56q-42 0 -42 56v155h941v-155zM702 -277q0 -32 -22.5 -54.5t-54.5 -22.5t-54.5 22.5t-22.5 54.5t22.5 54.5
t54.5 22.5t54.5 -22.5t22.5 -54.5z" />
    <glyph glyph-name="U1e6d" unicode="&#x1e6d;" horiz-adv-x="1101" 
d="M1023 105q0 -49 -128 -99q-99 -39 -187 -39q-125 0 -209 64q-92 70 -92 191l-1 455h-205q-56 0 -56 43q0 42 56 42h205l1 352q0 56 42 56q43 0 43 -56l-1 -352h406q56 0 56 -43q0 -42 -56 -42h-406l1 -455q0 -82 66 -129q59 -42 144 -42q37 0 134 26q21 5 83 39
q58 31 64 31q40 0 40 -42zM652 -277q0 -32 -22.5 -54.5t-54.5 -22.5t-54.5 22.5t-22.5 54.5t22.5 54.5t54.5 22.5t54.5 -22.5t22.5 -54.5z" />
    <glyph glyph-name="U1e6e" unicode="&#x1e6e;" horiz-adv-x="1241" 
d="M1091 1014q0 -56 -42 -56q-44 0 -43 56l1 71h-344v-1002h71q56 0 56 -43q0 -42 -56 -42h-226q-56 0 -56 42q0 43 56 43h71l-1 1002h-344l1 -71q1 -56 -43 -56q-42 0 -42 56v155h941v-155zM935 -243q0 -42 -54 -42h-492q-52 0 -52 42q0 43 56 43h486q56 0 56 -43z" />
    <glyph glyph-name="U1e6f" unicode="&#x1e6f;" horiz-adv-x="1101" 
d="M1023 105q0 -49 -128 -99q-99 -39 -187 -39q-125 0 -209 64q-92 70 -92 191l-1 455h-205q-56 0 -56 43q0 42 56 42h205l1 352q0 56 42 56q43 0 43 -56l-1 -352h406q56 0 56 -43q0 -42 -56 -42h-406l1 -455q0 -82 66 -129q59 -42 144 -42q37 0 134 26q21 5 83 39
q58 31 64 31q40 0 40 -42zM895 -243q0 -42 -54 -42h-492q-52 0 -52 42q0 43 56 43h486q56 0 56 -43z" />
    <glyph glyph-name="U1e92" unicode="&#x1e92;" horiz-adv-x="1109" 
d="M959 0h-809v122l682 964h-560l1 -71q1 -56 -43 -56q-42 0 -42 56v155h725v-119l-682 -967h644l-1 71q-1 56 43 56q42 0 42 -56v-155zM642 -277q0 -32 -22.5 -54.5t-54.5 -22.5t-54.5 22.5t-22.5 54.5t22.5 54.5t54.5 22.5t54.5 -22.5t22.5 -54.5z" />
    <glyph glyph-name="U1e93" unicode="&#x1e93;" horiz-adv-x="1015" 
d="M864 0h-714v75l575 602h-468q0 -85 1 -76q-6 -51 -44 -51q-42 0 -42 53v159h672v-75l-578 -603l513 1q0 85 -1 76q6 51 44 51q42 0 42 -53v-159zM612 -277q0 -32 -22.5 -54.5t-54.5 -22.5t-54.5 22.5t-22.5 54.5t22.5 54.5t54.5 22.5t54.5 -22.5t22.5 -54.5z" />
    <glyph glyph-name="U200c" unicode="&#x200c;" horiz-adv-x="41" 
d="M41 -116h-41v1469h41v-1469z" />
    <glyph glyph-name="U200d" unicode="&#x200d;" horiz-adv-x="41" 
d="M144 1180l-27 -27l-76 76v-1345h-41v1345l-76 -76l-27 27l97 96l-97 97l27 27l97 -97l96 97l27 -27l-96 -97z" />
    <glyph glyph-name="U200e" unicode="&#x200e;" horiz-adv-x="41" 
d="M273 1276l-123 -124l-28 28l77 77h-158v-1373h-41v1414h196l-74 74l28 28z" />
    <glyph glyph-name="U200f" unicode="&#x200f;" horiz-adv-x="41" 
d="M41 -116h-41v1373h-159l78 -77l-28 -28l-124 124l124 124l28 -28l-74 -74h196v-1414z" />
    <glyph glyph-name="hyphen" unicode="&#x2010;" horiz-adv-x="1242" 
d="M1091 585q0 -42 -56 -42h-829q-56 0 -56 42t56 42h829q56 0 56 -42z" />
    <glyph glyph-name="quoteleft" unicode="&#x2018;" horiz-adv-x="500" 
d="M359 1033q-84 -40 -84 -110q74 -19 74 -101q0 -41 -28 -70.5t-69 -29.5q-47 0 -76 38q-26 34 -26 83q0 181 183 324q0 -117 26 -134z" />
    <glyph glyph-name="quoteright" unicode="&#x2019;" horiz-adv-x="500" 
d="M349 1040q0 -181 -183 -324q0 117 -26 135q84 39 84 109q-74 20 -74 101q0 42 28 71t69 29q102 0 102 -121z" />
    <glyph glyph-name="quotedblleft" unicode="&#x201c;" horiz-adv-x="745" 
d="M603 1033q-84 -40 -84 -110q74 -19 74 -101q0 -41 -28.5 -70.5t-68.5 -29.5q-48 0 -76 38q-26 34 -26 83q0 181 183 324q0 -117 26 -134zM359 1033q-84 -40 -84 -110q74 -19 74 -101q0 -41 -28 -70.5t-69 -29.5q-47 0 -76 38q-26 34 -26 83q0 181 183 324q0 -117 26 -134
z" />
    <glyph glyph-name="quotedblright" unicode="&#x201d;" horiz-adv-x="743" 
d="M593 1040q0 -181 -183 -324q0 117 -26 135q84 39 84 109q-74 20 -74 101q0 42 28 71t69 29q102 0 102 -121zM349 1040q0 -181 -183 -324q0 117 -26 135q84 39 84 109q-74 20 -74 101q0 42 28 71t69 29q102 0 102 -121z" />
    <glyph glyph-name="glyph212" unicode="&#x2022;" horiz-adv-x="1229" 
d="M862 637q0 -103 -72.5 -175.5t-175.5 -72.5t-175 72.5t-72 175.5t72 175t175 72t175.5 -72t72.5 -175z" />
    <glyph glyph-name="overscore" unicode="&#x203e;" horiz-adv-x="1229" 
d="M1256 1382q0 -42 -53 -42h-1177q-53 0 -53 43q0 42 53 42h1177q53 0 53 -43z" />
    <glyph glyph-name="U25cc" unicode="&#x25cc;" horiz-adv-x="1010" 
d="M897 697q0 -41 -40 -41q-43 0 -43 41t43 41q40 0 40 -41zM773 778q0 -40 -40 -40q-43 0 -43 40q0 43 43 43q40 0 40 -43zM981 573q0 -43 -43 -43q-41 0 -41 43q0 41 43 41q41 0 41 -41zM627 809q0 -42 -40 -42q-41 0 -41 42q0 41 41 41q40 0 40 -41zM1010 427
q0 -41 -41 -41q-43 0 -43 41t43 41q41 0 41 -41zM483 778q0 -40 -42 -40q-41 0 -41 40q0 43 41 43q42 0 42 -43zM981 281q0 -41 -43 -41q-41 0 -41 41q0 43 41 43q43 0 43 -43zM359 697q0 -41 -42 -41q-41 0 -41 39q0 43 41 43q42 0 42 -41zM897 157q0 -41 -40 -41
q-41 0 -41 41q0 43 41 43q40 0 40 -43zM773 76q0 -41 -40 -41q-41 0 -41 41q0 42 41 42q40 0 40 -42zM276 573q0 -43 -39 -43q-42 0 -42 43q0 41 40 41q41 0 41 -41zM247 427q0 -41 -41 -41q-42 0 -42 41t42 41q41 0 41 -41zM627 47q0 -43 -40 -43q-41 0 -41 43q0 41 41 41
q40 0 40 -41zM483 78q0 -43 -42 -43q-41 0 -41 41q0 42 41 42q42 0 42 -40zM276 281q0 -41 -41 -41q-40 0 -40 41q0 43 40 43q41 0 41 -43zM359 157q0 -41 -40 -41q-43 0 -43 41q0 43 41 43q42 0 42 -43z" />
    <glyph glyph-name="middot" unicode="&#x25ef;" horiz-adv-x="903" 
d="M555 678q0 -42 -30 -72t-72 -30q-43 0 -73 29.5t-30 72.5t30 73t73 30t72.5 -30t29.5 -73z" />
    <glyph glyph-name="U2670" unicode="&#x2670;" horiz-adv-x="1350" 
d="M1254 771q-29 -24 -58 -47q-38 -35 -38 -58q0 -22 38 -57l56 -48v-61q-6 -16 -24 -26h-64q-25 41 -117 69q-77 23 -140 23h-156l-1 -416q0 -66 31 -146q34 -92 83 -120v-62q-7 -16 -28 -27h-62q-76 96 -104 96q-24 0 -58 -38q-24 -28 -48 -57h-61q-16 6 -24 25v64
q43 27 80 120q34 86 34 145v416h-151q-73 0 -141 -19q-88 -25 -116 -73h-63q-14 7 -26 28v62q29 23 58 47q39 34 39 58q0 22 -38 57q-29 24 -57 48v61q6 16 24 26h65q27 -45 117 -87q72 -33 141 -39q6 -1 146 -2v163q0 67 -29 142q-34 85 -83 115v63q6 14 27 26h62
q77 -95 104 -95q22 0 58 37q24 29 48 57h60q16 -7 26 -24v-65q-44 -26 -80 -116q-34 -82 -34 -140v-163l156 1q74 6 143 38q87 41 116 89h63q14 -7 26 -29v-61z" />
    <glyph glyph-name="U2671" unicode="&#x2671;" horiz-adv-x="1350" 
d="M1266 684q-65 -105 -94 -214l-192 121l-216 -1v-487q31 -43 121 -178q-100 -14 -206 -94q-108 78 -214 94q47 60 127 177v489h-222l-193 -126q-21 112 -93 206q69 96 98 206l175 -117h235v258l-127 172q105 21 210 107q119 -83 210 -103l-121 -184v-250h215l185 120
q22 -108 102 -196zM736 1121v76h-109v-76h109zM1157 618v109h-76v-109h76zM821 658v32h-127v157h-33v-157h-128v-32h128v-384h33v384h127zM262 618v109h-76v-109h76zM736 -76v76h-109v-76h109z" />
    <glyph glyph-name="glyph4" horiz-adv-x="681" 
 />
    <glyph glyph-name="amacron" horiz-adv-x="1146" 
d="M849 1051q0 -42 -52 -42h-478q-53 0 -53 43q0 42 53 42h478q52 0 52 -43zM997 42q0 -42 -56 -42h-147v109q-165 -139 -353 -139q-119 0 -199 58q-91 65 -91 180q0 141 136 215q109 60 261 60q108 0 246 -28v123q0 81 -80 122q-62 32 -151 32q-57 0 -163.5 -30.5
t-121.5 -30.5q-35 0 -35 38q0 14 9 25q17 20 147 48q121 27 168 27q116 0 203 -56q101 -64 101 -175l-1 -493h71q56 0 56 -43zM794 210v167q-103 30 -238 30q-117 0 -209 -42q-120 -54 -120 -157q0 -82 67 -125q57 -37 144 -37q185 0 356 164z" />
    <glyph glyph-name="U0640ThreeQuart" horiz-adv-x="288" 
d="M288 0h-358v208h358v-208z" />
    <glyph glyph-name="U0640Quart" horiz-adv-x="96" 
d="M96 0h-166v208h166v-208z" />
    <glyph glyph-name="U0640Half" horiz-adv-x="192" 
d="M192 0h-262v208h262v-208z" />
    <glyph glyph-name="U0710Medi2" horiz-adv-x="507" 
d="M507 0h-345q-38 0 -38 44v138q53 33 130 115q99 105 99 167q0 49 -10 64q-169 23 -169 123q0 41 32 76t78 35q139 0 139 -216q0 -124 -11 -176q-18 -80 -82 -162h177v-208z" />
    <glyph glyph-name="U0710Fina1" horiz-adv-x="507" 
d="M507 0h-227q5 -10 5 -26q0 -36 -21 -72q-22 -39 -53 -45q0 108 -50 143q-37 1 -37 44v138q53 33 130 115q99 105 99 167q0 49 -10 64q-169 23 -169 123q0 41 32 76t78 35q139 0 139 -216q0 -124 -11 -176q-18 -80 -82 -162h177v-208z" />
    <glyph glyph-name="U0710Fina2" horiz-adv-x="586" 
d="M570 104q0 -104 -62 -104h-228q5 -10 5 -26q0 -36 -21 -72q-22 -39 -53 -45q0 108 -50 143q-37 1 -37 44v138q53 33 130 115q99 105 99 167q0 49 -10 64q-169 23 -169 123q0 41 32 76t78 35q139 0 139 -216q0 -124 -11 -176q-18 -80 -82 -162h178q19 0 39 -29
q23 -33 23 -75z" />
    <glyph glyph-name="U0710Fina3" horiz-adv-x="586" 
d="M570 104q0 -104 -62 -104h-346q-38 0 -38 44v138q53 33 130 115q99 105 99 167q0 49 -10 64q-169 23 -169 123q0 41 32 76t78 35q139 0 139 -216q0 -124 -11 -176q-18 -80 -82 -162h178q19 0 39 -29q23 -33 23 -75z" />
    <glyph glyph-name="U0712Init" horiz-adv-x="727" 
d="M726 0h-796v208h587v184h-303q-90 0 -90 78v199q39 -31 133 -52q80 -17 142 -17q54 0 136 15q109 21 148 54v-350q0 -16 21.5 -66.5t21.5 -82.5v-170z" />
    <glyph glyph-name="U0712Medi" horiz-adv-x="727" 
d="M726 0h-796v208h587v184h-303q-90 0 -90 78v199q39 -31 133 -52q80 -17 142 -17q54 0 136 15q109 21 148 54v-350q0 -16 21.5 -66.5t21.5 -82.5v-170z" />
    <glyph glyph-name="U0712Fina" horiz-adv-x="1058" 
d="M1053 0h-783q-56 0 -102.5 69t-46.5 147q0 57 61 145q0 -153 55 -153h606v184h-303q-89 0 -89 78v199q39 -31 132 -52q80 -17 143 -17q53 0 135 15q109 21 148 54v-354q0 -16 22 -64.5t22 -80.5v-170z" />
    <glyph glyph-name="U0713Init" horiz-adv-x="939" 
d="M1118 -383h-179v177q0 48 -56 124q-60 82 -113 82h-840v208h591q-42 78 -195 290q-132 183 -132 206q0 39 81 142q72 91 145 159q-5 -32 -5 -70q0 -162 120 -376q67 -119 251 -370q61 -104 122 -207q89 -148 127 -148h83v-217z" />
    <glyph glyph-name="U0713Medi" horiz-adv-x="892" 
d="M892 0h-123q-30 0 -51 18l-32 32q-17 -50 -64 -50q97 -166 137 -166h84v-217h-180v177q0 48 -56 124q-60 82 -113 82h-564v208h591q-42 78 -195 290q-132 183 -132 206q0 39 81 142q72 91 145 159q-5 -32 -5 -70q0 -159 115 -366q68 -123 242 -361h120v-208z" />
    <glyph glyph-name="U0713Fina" horiz-adv-x="1198" 
d="M1198 0h-123q-30 0 -51 18l-32 32q-16 -50 -64 -50q97 -166 137 -166h84v-217h-180v177q0 48 -56 124q-60 82 -113 82h-530q-56 0 -102.5 69t-46.5 147q0 57 61 145q0 -153 55 -153h590q-41 78 -195 290q-132 183 -132 206q0 39 81 142q72 91 145 159q-5 -32 -5 -70
q0 -159 115 -366q68 -123 242 -361h120v-208z" />
    <glyph glyph-name="U0714Init" horiz-adv-x="939" 
d="M1118 -383h-179v177q0 48 -56 124q-60 82 -113 82h-840v208h274l166 228q-176 246 -176 268q0 39 81 142q72 91 145 159q-5 -32 -5 -70q0 -162 120 -376q67 -119 251 -370q61 -104 122 -207q89 -148 127 -148h83v-217zM521 208q-31 58 -102 159l-115 -159h217z" />
    <glyph glyph-name="U0714Medi" horiz-adv-x="892" 
d="M892 0h-123q-30 0 -51 18l-32 32q-17 -50 -64 -50q97 -166 137 -166h84v-217h-180v177q0 48 -56 124q-60 82 -113 82h-564v208h274l166 228q-176 246 -176 268q0 39 81 142q72 91 145 159q-5 -32 -5 -70q0 -159 115 -366q68 -123 242 -361h120v-208zM521 208
q-31 58 -102 159l-115 -159h217z" />
    <glyph glyph-name="U0714Fina" horiz-adv-x="1198" 
d="M1198 0h-123q-30 0 -51 18l-32 32q-16 -50 -64 -50q97 -166 137 -166h84v-217h-180v177q0 48 -56 124q-60 82 -113 82h-530q-56 0 -102.5 69t-46.5 147q0 57 61 145q0 -153 55 -153h274l166 228q-177 246 -177 268q0 39 81 142q72 91 145 159q-5 -32 -5 -70
q0 -159 115 -366q68 -123 242 -361h120v-208zM827 208q-31 58 -101 159l-116 -159h217z" />
    <glyph glyph-name="U0715Fina" horiz-adv-x="596" 
d="M596 0h-472v208h298v55q0 154 -139 154q-69 0 -159 -43v202q66 49 171 49q142 0 229 -121q72 -101 72 -217v-287zM521 -305h-256v202h256v-202z" />
    <glyph glyph-name="U0716Fina" horiz-adv-x="596" 
d="M596 0h-472v208h298v55q0 154 -139 154q-69 0 -159 -43v202q66 49 171 49q142 0 229 -121q72 -101 72 -217v-287z" />
    <glyph glyph-name="U0717Fina" horiz-adv-x="935" 
d="M935 0h-65q-10 -82 -28 -116q-40 188 -40 406v102h-151q-30 -52 -29 -144q0 -13 1 -47q1 -29 1 -45q0 -156 -210 -156q-290 0 -290 301q0 197 91 261q55 38 190 38h130q211 0 349 95v-405q0 -43 -1 -82h52v-208zM540 392h-250q0 -97 43 -146q33 -38 81 -38q84 0 112 61
q16 38 14 123z" />
    <glyph glyph-name="U0718Fina" horiz-adv-x="718" 
d="M718 0h-389q-74 0 -139.5 81t-65.5 173q0 148 94 261q90 110 199 110q105 0 205 -106q96 -102 96 -197v-322zM552 295q0 40 -40.5 81t-84.5 41q-54 0 -85.5 -34t-31.5 -88q0 -87 133 -87q44 0 76.5 23.5t32.5 63.5z" />
    <glyph glyph-name="U0719Fina" horiz-adv-x="545" 
d="M545 0h-59q-27 -120 -129 -259q0 26 6.5 107t5.5 126q0 10 -4 52q-112 67 -144 99q-97 95 -97 236q0 81 34 149q45 90 128 90q113 0 172 -148q45 -112 45 -244h42v-208z" />
    <glyph glyph-name="U071aInit" horiz-adv-x="950" 
d="M950 0h-89l-116 106v-106h-121q-62 0 -169 106v-106h-525v208h409v245q90 -52 282 -231v231q116 -95 329 -245v-208z" />
    <glyph glyph-name="U071aMedi" horiz-adv-x="950" 
d="M950 0h-89l-116 106v-106h-121q-62 0 -169 106v-106h-525v208h409v245q90 -52 282 -231v231q116 -95 329 -245v-208z" />
    <glyph glyph-name="U071aFina" horiz-adv-x="1099" 
d="M1099 0h-89l-116 106v-106h-121q-62 0 -169 106v-106h-334q-56 0 -102.5 69t-46.5 147q0 57 61 145q0 -153 55 -153h251v245q90 -52 282 -231v231q116 -95 329 -245v-208z" />
    <glyph glyph-name="U071bInit" horiz-adv-x="1140" 
d="M1140 0q-31 -60 -126 -205q-99 -153 -156 -227l-273 432h-655v208h536q-161 260 -177 289q-74 128 -74 175q0 75 105 138q112 55 224 111q-67 -71 -67 -154q0 -73 87 -276q67 -158 136 -283h440v-208zM1021 0h-220q46 -79 114 -188q35 49 106 188z" />
    <glyph glyph-name="U071bMedi" horiz-adv-x="1140" 
d="M1140 0q-31 -60 -126 -205q-99 -153 -156 -227l-273 432h-655v208h536q-161 260 -177 289q-74 128 -74 175q0 75 105 138q112 55 224 111q-67 -71 -67 -154q0 -73 87 -276q67 -158 136 -283h440v-208zM1021 0h-220q46 -79 114 -188q35 49 106 188z" />
    <glyph glyph-name="U071bFina" horiz-adv-x="1447" 
d="M1447 0q-32 -60 -127 -205q-99 -153 -156 -227l-273 432h-621q-56 0 -102.5 69t-46.5 147q0 57 61 145q0 -153 55 -153h535q-161 260 -177 289q-74 128 -74 175q0 75 106 138q111 55 223 111q-67 -71 -67 -154q0 -73 87 -276q68 -158 136 -283h441v-208zM1327 0h-220
q46 -79 114 -188q35 49 106 188z" />
    <glyph glyph-name="U071cInit" horiz-adv-x="1140" 
d="M1140 0q-31 -60 -126 -205q-99 -153 -156 -227l-273 432h-655v208h536q-161 260 -177 289q-74 128 -74 175q0 75 105 138q112 55 224 111q-67 -71 -67 -154q0 -73 87 -276q67 -158 136 -283h440v-208zM1021 0h-220q46 -79 114 -188q35 49 106 188zM953 -63q0 -36 -36 -36
t-36 36q0 37 36 37t36 -37z" />
    <glyph glyph-name="U071cMedi" horiz-adv-x="1140" 
d="M1140 0q-31 -60 -126 -205q-99 -153 -156 -227l-273 432h-655v208h536q-161 260 -177 289q-74 128 -74 175q0 75 105 138q112 55 224 111q-67 -71 -67 -154q0 -73 87 -276q67 -158 136 -283h440v-208zM1021 0h-220q46 -79 114 -188q35 49 106 188zM953 -63q0 -36 -36 -36
t-36 36q0 37 36 37t36 -37z" />
    <glyph glyph-name="U071cFina" horiz-adv-x="1447" 
d="M1447 0q-32 -60 -127 -205q-99 -153 -156 -227l-273 432h-621q-56 0 -102.5 69t-46.5 147q0 57 61 145q0 -153 55 -153h535q-161 260 -177 289q-74 128 -74 175q0 75 106 138q111 55 223 111q-67 -71 -67 -154q0 -73 87 -276q68 -158 136 -283h441v-208zM1327 0h-220
q46 -79 114 -188q35 49 106 188zM1260 -63q0 -36 -37 -36q-36 0 -36 36q0 37 36 37q37 0 37 -37z" />
    <glyph glyph-name="U071dInit" horiz-adv-x="569" 
d="M569 0q-34 17 -69 34q-51 27 -96 72v-106h-474v208h358v245q90 -52 281 -231v-222z" />
    <glyph glyph-name="U071dMedi" horiz-adv-x="569" 
d="M569 0q-34 17 -69 34q-51 27 -96 72v-106h-474v208h358v245q90 -52 281 -231v-222z" />
    <glyph glyph-name="U071dFina" horiz-adv-x="823" 
d="M823 0l-68 34q-52 27 -97 72v-106h-388q-56 0 -102.5 69t-46.5 147q0 57 61 145q0 -153 55 -153h305v245q90 -52 281 -231v-222z" />
    <glyph glyph-name="U071eFina" horiz-adv-x="1513" 
d="M604 1092q0 -34 -27.5 -67.5t-59.5 -33.5q-31 0 -59 33.5t-28 67.5t28 67.5t59 33.5q32 0 59.5 -33.5t27.5 -67.5zM716 817q0 -34 -27.5 -68t-59.5 -34t-59.5 34t-27.5 68t27.5 67.5t59.5 33.5t59.5 -33.5t27.5 -67.5zM492 817q0 -34 -27.5 -68t-58.5 -34q-32 0 -59.5 34
t-27.5 68t27.5 67.5t59.5 33.5q31 0 58.5 -33.5t27.5 -67.5zM1513 0q-35 17 -69 34q-51 27 -97 72v-106h-477q-10 -82 -28 -116q-40 188 -40 406v102h-151q-30 -52 -29 -144q0 -13 1 -47q1 -29 1 -45q0 -156 -210 -156q-290 0 -290 301q0 197 91 261q55 38 190 38h130
q211 0 349 95v-405q0 -43 -1 -82h348v245q90 -52 282 -231v-222zM604 -326q0 -34 -27.5 -67.5t-59.5 -33.5q-31 0 -59 33.5t-28 67.5t28 68t59 34q32 0 59.5 -34t27.5 -68zM540 392h-250q0 -97 43 -146q33 -38 81 -38q84 0 112 61q16 38 14 123z" />
    <glyph glyph-name="U071fInit" horiz-adv-x="823" 
d="M785 0h-855v208h576q-88 230 -230 230q-40 0 -105 -36.5t-110 -83.5q15 72 30 145q20 86 53 128q43 55 122 55q247 0 386 -228q101 -164 133 -418z" />
    <glyph glyph-name="U071fMedi" horiz-adv-x="823" 
d="M823 0h-213q-36 0 -118 97v-97h-562v208h576q-88 230 -230 230q-40 0 -105 -36.5t-110 -83.5q15 72 30 145q20 86 53 128q43 55 122 55q349 0 477 -438h80v-208z" />
    <glyph glyph-name="U071fFina" horiz-adv-x="602" 
d="M1016 -203q-35 -88 -136.5 -203t-142.5 -115q-31 0 -317 289q-296 297 -296 364q0 74 108 302h289v129h81v-567h-60v212h-191l-16 -16q-3 -4 -3 -25q0 -48 204 -264t248 -216q28 0 108 38q75 37 124 72z" />
    <glyph glyph-name="U0720Init" horiz-adv-x="934" 
d="M922 0h-992v208h709q-39 64 -259 381q-168 243 -168 269q0 39 81 142q72 91 145 159q-5 -32 -5 -97q0 -97 200 -493q145 -284 289 -569z" />
    <glyph glyph-name="U0720Medi" horiz-adv-x="942" 
d="M942 0h-124q-30 0 -51 18l-32 32q-16 -50 -63 -50h-742v208h709q-39 64 -259 381q-168 243 -168 269q0 39 81 142q72 91 145 159q-5 -32 -5 -97q0 -81 135 -361q40 -84 251 -493h123v-208z" />
    <glyph glyph-name="U0720Fina" horiz-adv-x="1240" 
d="M1240 0h-124q-30 0 -51 18l-32 32q-16 -50 -63 -50h-700q-56 0 -102.5 69t-46.5 147q0 57 61 145q0 -153 55 -153h720q-40 64 -259 381q-168 243 -168 269q0 39 81 142q72 91 145 159q-5 -32 -5 -97q0 -81 134 -361q40 -84 252 -493h103v-208z" />
    <glyph glyph-name="U0721Init" horiz-adv-x="1018" 
d="M989 254q0 -100 -63 -173q-71 -81 -186 -81q-114 0 -195 67q-54 -67 -107 -67h-508v208h475v95q-97 50 -178 121q-86 76 -86 118q0 52 56 131q45 56 91 113q-12 -25 -12 -44q0 -122 209 -278q101 161 211 161q112 0 199 -102q94 -110 94 -269zM804 312q0 43 -33 74
t-77 31q-43 0 -74 -30.5t-31 -74.5q0 -104 76 -104h76q63 0 63 104z" />
    <glyph glyph-name="U0721Medi" horiz-adv-x="1018" 
d="M1018 0h-278q-114 0 -195 67q-54 -67 -107 -67h-508v208h475v95q-97 50 -178 121q-86 76 -86 118q0 52 56 131q45 56 91 113q-12 -25 -12 -44q0 -122 209 -278q101 161 211 161q112 0 199 -102q94 -110 94 -269q0 -23 -4 -46h33v-208zM804 312q0 43 -33 74t-77 31
q-43 0 -74 -30.5t-31 -74.5q0 -104 76 -104h76q63 0 63 104z" />
    <glyph glyph-name="U0721Fina" horiz-adv-x="1033" 
d="M1033 0h-567q-52 -97 -162 -264q43 253 212 652h-302q-90 0 -90 78v199q82 -65 213 -65h454q141 0 218 65q-30 -141 -30 -199q0 -47 27 -157t27 -139v-170zM813 208v180h-172q-67 -149 -83 -180h255z" />
    <glyph glyph-name="U0722Init" horiz-adv-x="586" 
d="M586 0h-656v208h373v66q0 55 -35 82q-16 13 -65 29q-35 11 -35 29q0 36 50 186h251v-146q0 -142 117 -246v-208z" />
    <glyph glyph-name="U0722Medi" horiz-adv-x="586" 
d="M586 0h-121q-30 0 -58 26q-20 19 -40 39q-6 -19 -26 -41q-23 -24 -39 -24h-372v208h373v66q0 55 -35 82q-16 13 -65 29q-35 11 -35 29q0 36 50 186h251v-146q0 -142 117 -246v-208z" />
    <glyph glyph-name="U0722Fina" horiz-adv-x="644" 
d="M644 0h-344q-16 -55 -16 -76q0 -73 251 -543q-115 101 -244 275q-167 226 -167 352v378l95 -94q82 -84 152 -84h273v-208z" />
    <glyph glyph-name="U0723Init" horiz-adv-x="836" 
d="M811 240q0 -240 -156 -240h-217q-102 0 -174 64q-56 -64 -122 -64h-212v208h197q-39 63 -39 169q0 133 84 207q65 57 138 57q87 0 134 -48q11 -12 54 -86q48 47 119 47q108 0 159 -124q35 -84 35 -190zM651 278q-8 97 -60 97q-15 0 -64 -14q-21 -24 -86 -153h175
q41 0 35 70zM417 336q0 97 -80 97q-83 0 -83 -75q0 -86 108 -132q30 31 46 81z" />
    <glyph glyph-name="U0723Medi" horiz-adv-x="844" 
d="M844 0h-406q-102 0 -174 64q-56 -64 -122 -64h-212v208h197q-39 63 -39 169q0 133 84 207q65 57 138 57q87 0 134 -48q11 -12 54 -86q48 47 119 47q108 0 159 -124q35 -84 35 -190q0 -17 -1 -32h34v-208zM651 278q-8 97 -60 97q-15 0 -64 -14q-21 -24 -86 -153h175
q41 0 35 70zM417 336q5 97 -80 97q-83 0 -83 -75q0 -86 108 -132q30 31 46 81z" />
    <glyph glyph-name="U0723Fina" horiz-adv-x="1155" 
d="M1155 0h-407q-101 0 -174 64q-56 -64 -122 -64h-182q-56 0 -102.5 69t-46.5 147q0 57 61 145q0 -153 55 -153h200q-39 63 -39 169q0 133 84 207q65 57 139 57q87 0 133 -48q12 -12 55 -86q47 47 118 47q108 0 159 -124q35 -84 35 -190q0 -17 -1 -32h35v-208zM962 278
q-8 97 -61 97q-15 0 -63 -14q-22 -24 -87 -153h176q40 0 35 70zM728 336q4 97 -81 97q-83 0 -83 -75q0 -86 108 -132q30 31 46 81z" />
    <glyph glyph-name="U0724Init" horiz-adv-x="836" 
d="M811 240q0 -240 -156 -240h-217q-102 0 -174 64q-56 -64 -122 -64h-212v208h197q-39 63 -39 169q0 133 84 207q65 57 138 57q87 0 134 -48q11 -12 54 -86q48 47 119 47q108 0 159 -124q35 -84 35 -190zM651 278q-8 97 -60 97q-15 0 -64 -14q-21 -24 -86 -153h175
q41 0 35 70zM417 336q0 97 -80 97q-83 0 -83 -75q0 -86 108 -132q30 31 46 81z" />
    <glyph glyph-name="U0724Medi" horiz-adv-x="844" 
d="M844 0h-406q-102 0 -174 64q-56 -64 -122 -64h-212v208h197q-39 63 -39 169q0 133 84 207q65 57 138 57q87 0 134 -48q11 -12 54 -86q48 47 119 47q108 0 159 -124q35 -84 35 -190q0 -17 -1 -32h34v-208zM651 278q-8 97 -60 97q-15 0 -64 -14q-21 -24 -86 -153h175
q41 0 35 70zM417 336q5 97 -80 97q-83 0 -83 -75q0 -86 108 -132q30 31 46 81z" />
    <glyph glyph-name="U0724Fina" horiz-adv-x="881" 
d="M881 0h-407q-56 0 -110 22q-133 -188 -168 -188q-21 0 -21 24q0 27 121 201q-77 53 -124.5 140.5t-47.5 177.5q0 133 84 207q65 57 139 57q87 0 133 -48q12 -12 55 -86q47 47 118 47q108 0 159 -124q35 -84 35 -190q0 -17 -1 -32h35v-208zM688 278q-8 97 -61 97
q-15 0 -63 -14q-21 -24 -87 -153h176q40 0 35 70zM454 336q4 97 -81 97q-83 0 -83 -75q0 -86 108 -132q30 31 46 81z" />
    <glyph glyph-name="U0725Init" horiz-adv-x="906" 
d="M911 235q0 -94 -77 -164.5t-175 -70.5q-71 0 -172 91q-76 -91 -167 -91h-390v208h434q-41 37 -150 179q-117 154 -117 185q0 38 81 142q72 91 145 158q-5 -31 -5 -69q0 -169 147 -382t263 -213q113 0 116 120q1 14 -3 40l44 -56q26 -37 26 -77z" />
    <glyph glyph-name="U0725Medi" horiz-adv-x="906" 
d="M906 0h-247q-71 0 -172 91q-76 -91 -167 -91h-390v208h434q-41 37 -150 179q-117 154 -117 185q0 38 81 142q72 91 145 158q-5 -31 -5 -69q0 -169 147 -382t263 -213h178v-208z" />
    <glyph glyph-name="U0725Fina" horiz-adv-x="1241" 
d="M1241 0h-251q-71 0 -172 91q-76 -91 -168 -91h-380q-56 0 -102.5 69t-46.5 147q0 57 61 145q0 -153 55 -153h457q-41 37 -149 179q-117 154 -117 185q0 38 81 142q72 91 145 158q-5 -31 -5 -69q0 -169 146.5 -382t263.5 -213h182v-208z" />
    <glyph glyph-name="U0726Init" horiz-adv-x="826" 
d="M695 161q0 -64 -37 -109q-43 -52 -116 -52h-612v208h579q-20 90 -50 122t-87 32h-125q-74 0 -130 58.5t-56 134.5q0 118 98 180q31 20 194 78q116 41 141 101q15 -43 108 -387q93 -349 93 -366zM443 458q-15 59 -31 118q-23 71 -57 71q-44 0 -81 -18q-47 -23 -47 -62
q0 -109 112 -109h104z" />
    <glyph glyph-name="U0726Medi" horiz-adv-x="775" 
d="M775 0h-85q-61 0 -106 63q-3 -22 -23 -41q-22 -22 -48 -22h-583v208h579q-20 90 -49.5 122t-87.5 32h-125q-74 0 -130 58.5t-56 134.5q0 118 98 180q31 20 194 78q116 41 141 101q58 -163 191 -706h90v-208zM443 458q-15 59 -31 118q-23 71 -57 71q-44 0 -81 -18
q-47 -23 -47 -62q0 -109 112 -109h104z" />
    <glyph glyph-name="U0726Fina" horiz-adv-x="1088" 
d="M1088 0h-85q-61 0 -106 63q-3 -22 -23 -41q-22 -22 -48 -22h-556q-56 0 -102.5 69t-46.5 147q0 57 61 145q0 -153 55 -153h585q-20 90 -50 122t-87 32h-125q-74 0 -130 58.5t-56 134.5q0 118 98 180q31 20 194 78q116 41 141 101q58 -163 191 -706h90v-208zM756 458
q-15 59 -31 118q-23 71 -57 71q-44 0 -81 -18q-47 -23 -47 -62q0 -109 112 -109h104z" />
    <glyph glyph-name="U0727Init" horiz-adv-x="1016" 
d="M967 216q0 -78 -46 -147t-102 -69h-515q-26 0 -48 22q-20 19 -24 41q-45 -63 -106 -63h-196v208h202q132 543 191 706q25 -60 141 -101q162 -58 194 -78q98 -62 98 -180q0 -76 -56 -134.5t-131 -58.5h-125q-57 0 -86.5 -32t-49.5 -122h543q55 0 55 153q61 -88 61 -145z
M589 567q0 39 -46 62q-37 18 -81 18q-34 0 -58 -71q-15 -59 -31 -118h105q111 0 111 109z" />
    <glyph glyph-name="U0727Medi" horiz-adv-x="833" 
d="M833 0h-529q-26 0 -48 22q-20 19 -23 41q-45 -63 -106 -63h-197v208h202q133 543 191 706q25 -60 141 -101q162 -58 194 -78q98 -62 98 -180q0 -76 -56 -134.5t-130 -58.5h-125q-58 0 -86 -31q-31 -33 -51 -123h525v-208zM589 567q0 39 -46 62q-37 18 -81 18
q-34 0 -57 -71l-32 -118h105q111 0 111 109z" />
    <glyph glyph-name="U0727Fina" horiz-adv-x="826" 
d="M827 0h-550q-73 0 -115 52q-38 45 -38 109q0 17 94 366q92 344 107 387q26 -60 142 -101q162 -58 193 -78q98 -62 98 -180q0 -76 -55.5 -134.5t-130.5 -58.5h-125q-57 0 -87 -32t-50 -122h517v-208zM592 567q0 39 -46 62q-38 18 -82 18q-34 0 -57 -71q-16 -59 -31 -118
h104q112 0 112 109z" />
    <glyph glyph-name="U0728Fina" horiz-adv-x="660" 
d="M698 0h-38q-19 0 -58 25.5t-53 47.5q-8 -3 -65 -44q-40 -29 -78 -29q-24 0 -52 10t-40 10q-14 0 -30 -8q49 -64 164 -148q136 -99 184 -148l-27 -126h-529q55 52 182 52h70q77 0 119 24q-163 88 -239 183q-84 105 -84 247q0 73 53 232q120 -120 189 -120q39 0 86 43
q37 38 74 77q77 -38 99 -120h73v-208z" />
    <glyph glyph-name="U0729Init" horiz-adv-x="718" 
d="M718 0h-420q-44 0 -72 18q-18 16 -37 32q-16 -50 -71 -50h-188v208h250v427q50 -32 138 -53q76 -18 127 -18q156 0 273 71v-635zM570 208v189h-249v-189h249z" />
    <glyph glyph-name="U0729Medi" horiz-adv-x="718" 
d="M718 0h-420q-44 0 -72 18q-18 16 -37 32q-16 -50 -71 -50h-188v208h250v427q50 -32 138 -53q76 -18 127 -18q156 0 273 71v-635zM570 208v189h-249v-189h249z" />
    <glyph glyph-name="U0729Fina" horiz-adv-x="1016" 
d="M1016 0h-420q-44 0 -72 18q-18 16 -37 32q-16 -50 -72 -50h-145q-56 0 -102.5 69t-46.5 147q0 57 61 145q0 -153 55 -153h241v427q50 -32 138 -53q76 -18 127 -18q155 0 273 71v-635zM867 208v189h-248v-189h248z" />
    <glyph glyph-name="U072aFina" horiz-adv-x="596" 
d="M466 722h-256v202h256v-202zM596 0h-472v208h298v55q0 154 -139 154q-69 0 -159 -43v202q66 49 171 49q142 0 229 -121q72 -101 72 -217v-287z" />
    <glyph glyph-name="U072bInit" horiz-adv-x="851" 
d="M850 0h-266q-44 0 -72 18q-18 16 -37 32q-16 -50 -72 -50h-473v208h471v150q0 16 -102.5 49.5t-102.5 66.5v191q82 -65 279 -65q71 0 155 15q102 19 141 50v-191q0 -33 -103 -66.5t-103 -49.5v-77q0 -73 91 -73h194v-208z" />
    <glyph glyph-name="U072bMedi" horiz-adv-x="851" 
d="M850 0h-266q-44 0 -72 18q-18 16 -37 32q-16 -50 -72 -50h-473v208h471v150q0 16 -102.5 49.5t-102.5 66.5v191q82 -65 279 -65q71 0 155 15q102 19 141 50v-191q0 -33 -103 -66.5t-103 -49.5v-77q0 -73 91 -73h194v-208z" />
    <glyph glyph-name="U072bFina" horiz-adv-x="1157" 
d="M1157 0h-266q-45 0 -72 18q-19 16 -37 32q-16 -50 -72 -50h-440q-56 0 -102.5 69t-46.5 147q0 57 61 145q0 -153 55 -153h471v150q0 16 -103 49.5t-103 66.5v191q83 -65 280 -65q71 0 155 15q102 19 140 50v-191q0 -33 -102.5 -66.5t-102.5 -49.5v-77q0 -73 91 -73h194
v-208z" />
    <glyph glyph-name="U072cFina" horiz-adv-x="894" 
d="M894 0h-85l-462 458q-58 -58 -58 -116q0 -68 52 -98q63 -26 127 -51q34 -15 76 -80q35 -57 69 -114q-65 0 -152 88q-28 -10 -102 -56q-61 -38 -93 -38q-142 0 -142 151q0 50 66 228q68 186 155 364q96 -82 549 -528v-208z" />
    <glyph glyph-name="U0720U0710Isol" horiz-adv-x="1281" 
d="M1281 0h-994q-97 -148 -180 -185v80q87 162 175 323q123 240 118 310q-169 23 -169 123q0 41 32 76t78 35q140 0 140 -216q0 -142 -84 -338h601q-40 64 -259 381q-168 243 -168 269q0 39 81 142q72 91 145 159q-5 -32 -5 -97q0 -97 200 -493q144 -284 289 -569z" />
    <glyph glyph-name="U0720U0710Fina" horiz-adv-x="1281" 
d="M1281 0h-994q-97 -148 -180 -185v80q87 162 175 323q123 240 118 310q-169 23 -169 123q0 41 32 76t78 35q140 0 140 -216q0 -142 -84 -338h601q-40 64 -259 381q-168 243 -168 269q0 39 81 142q72 91 145 159q-5 -32 -5 -97q0 -81 135 -361q40 -84 251 -493h103v-208z
" />
    <glyph glyph-name="U0728U0722Isol" horiz-adv-x="1052" 
d="M1001 0h-341q-19 0 -58 25.5t-53 47.5q-8 -3 -65 -44q-40 -29 -78 -29q-24 0 -52 10t-40 10q-14 0 -30 -8q49 -64 164 -148q136 -99 184 -148l-27 -126h-529q55 52 182 52h70q77 0 119 24q-163 88 -239 183q-84 105 -84 247q0 73 53 232q120 -120 189 -120q39 0 86 43
q37 38 74 77q77 -38 99 -120h93v66q0 55 -35 82q-17 13 -65 29q-35 11 -35 29q0 36 50 186h251v-146q0 -142 117 -246v-208z" />
    <glyph glyph-name="U0728U0722Fina" horiz-adv-x="1001" 
d="M1001 0h-341q-19 0 -58 25.5t-53 47.5q-8 -3 -65 -44q-40 -29 -78 -29q-24 0 -52 10t-40 10q-14 0 -30 -8q49 -64 164 -148q136 -99 184 -148l-27 -126h-529q55 52 182 52h70q77 0 119 24q-163 88 -239 183q-84 105 -84 247q0 73 53 232q121 -120 189 -120q39 0 86 43
q37 38 74 77q77 -38 99 -120h93v66q0 55 -35 82q-17 13 -65 29q-35 11 -35 29q0 36 50 186h251v-146q0 -142 117 -246v-208z" />
    <glyph glyph-name="U072cU0710Isol" horiz-adv-x="982" 
d="M982 -16q-112 37 -195 161q-58 -78 -158 -278q-68 30 -158 106q-86 71 -126 125q-54 -61 -92 -99q-75 -76 -129 -110v85q72 84 185 312q107 215 119 283q-58 29 -105 71q-58 53 -58 97q0 43 31 85t68 42q66 0 113 -74q43 -67 43 -146q0 -45 -46.5 -145t-46.5 -145
q0 -65 78.5 -146t138.5 -81q62 0 62 76q0 29 -69.5 92.5t-69.5 92.5q0 50 125 244q48 -25 48 -80q0 -15 -3 -45q-4 -35 -4 -46q83 -85 249 -254v-223z" />
    <glyph glyph-name="U072cU0710Fina" horiz-adv-x="982" 
d="M982 -16q-112 37 -195 161q-58 -78 -158 -278q-68 30 -158 106q-86 71 -126 125q-54 -61 -92 -99q-75 -76 -129 -110v85q72 84 185 312q107 215 119 283q-58 29 -105 71q-58 53 -58 97q0 43 31 85t68 42q66 0 113 -74q43 -67 43 -146q0 -45 -46.5 -145t-46.5 -145
q0 -65 78.5 -146t138.5 -81q62 0 62 76q0 29 -69.5 92.5t-69.5 92.5q0 50 125 244q48 -25 48 -80q0 -15 -3 -45q-4 -35 -4 -46q83 -85 249 -254v-223z" />
    <glyph glyph-name="U0717U071dFina" horiz-adv-x="1121" 
d="M1121 0h-66q-10 -82 -27 -116q-41 188 -41 406v102h-150q-31 -52 -30 -144q1 -13 2 -47q1 -29 1 -45q0 -156 -210 -156q-219 0 -272 165q-91 -137 -181 -223v87q0 55 113 168q-8 24 -57 75q-39 40 -79 81v247l194 -189q22 124 106 165q51 24 166 24h131q211 0 348 95
v-405q0 -43 -1 -82h53v-208zM726 392h-251q0 -97 43 -146q34 -38 82 -38q84 0 111 61q17 38 15 123z" />
    <glyph glyph-name="U072cU071dIsol" horiz-adv-x="1670" 
d="M1647 -29l-495 487q-58 -58 -58 -116q0 -68 51 -98q64 -26 127 -51q35 -15 76 -80q35 -57 69 -114q-65 0 -152 88q-28 -10 -101 -56q-61 -38 -93 -38q-143 0 -143 151q0 50 66 228q69 186 156 364q147 -126 497 -471v-294zM823 0l-68 34q-52 27 -97 72v-106h-388
q-56 0 -102.5 69t-46.5 147q0 57 61 145q0 -153 55 -153h305v245q90 -52 281 -231v-222z" />
    <glyph glyph-name="U072cU071dFina" horiz-adv-x="942" 
d="M942 0h-251v208q0 101 -37 173q-44 86 -125 86q-43 0 -85 -51t-42 -97v-111h159v-208h-225q-93 -141 -189 -232v87q0 55 113 168q-8 23 -57 74q-39 41 -79 81v248l212 -207v78q0 174 43 257q0 13 -175 167.5t-175 204.5q0 75 182 196l-19 -114q0 -66 112 -186
q96 -104 210 -183q148 -33 207 -95q76 -80 76 -259v-77h145v-208z" />
    <glyph glyph-name="U072aU0308Fina" horiz-adv-x="596" 
d="M537 722h-155v202h155v-202zM280 722h-156v202h156v-202zM596 0h-472v208h298v55q0 154 -139 154q-69 0 -159 -43v202q66 49 171 49q142 0 229 -121q72 -101 72 -217v-287z" />
    <glyph glyph-name="U072cU0710IsolAlt" horiz-adv-x="1420" 
d="M1396 268q1 -66 -16 -268h-93q11 74 10 152q-1 307 -165 307q-41 0 -85 -41.5t-44 -83.5v-126h160v-208h-793q-56 -61 -80 -85q-53 -50 -106 -81q35 109 181 328q110 165 221 331q-59 75 -192.5 137t-241.5 62q-28 79 -28 116q0 38 107 253q-13 -27 -13 -57
q0 -103 190 -209q130 -64 259 -127q59 47 59 104q0 29 -81.5 104.5t-81.5 104.5q0 60 53 119t110 59q74 0 113 -86q26 -59 26 -115q0 -29 -46.5 -151t-46.5 -151q0 -35 81 -83q74 -45 105 -45q29 0 98.5 58t98.5 58q236 0 241 -376zM909 208v175q-146 99 -195 99
q-60 0 -196 -274h391z" />
    <glyph glyph-name="U072cU0710FinaAlt" horiz-adv-x="1546" 
d="M1546 0h-259q11 74 10 152q-1 307 -165 307q-41 0 -85 -41.5t-44 -83.5v-126h160v-208h-793q-56 -61 -80 -85q-53 -50 -106 -81q35 109 181 328q110 165 221 331q-59 75 -192.5 137t-241.5 62q-28 79 -28 116q0 38 107 253q-13 -27 -13 -57q0 -103 190 -209
q130 -64 259 -127q59 47 59 104q0 29 -81.5 104.5t-81.5 104.5q0 60 53 119t110 59q74 0 113 -86q26 -59 26 -115q0 -29 -46.5 -151t-46.5 -151q0 -35 81 -83q74 -45 105 -45q29 0 98.5 58t98.5 58q236 0 241 -376q0 -29 -1 -60h151v-208zM909 208v175q-146 99 -195 99
q-60 0 -196 -274h391z" />
    <glyph glyph-name="glyph437" 
d="M880 567l-334 -567h-89l-313 567l313 571h89zM790 567l-288 493l-272 -493l272 -492z" />
    <glyph glyph-name="glyph438" 
d="M880 567l-334 -567h-89l-313 567l313 571h89zM790 567l-288 493l-272 -493l272 -492z" />
    <glyph glyph-name="glyph439" 
d="M880 567l-334 -567h-89l-313 567l313 571h89zM790 567l-288 493l-272 -493l272 -492z" />
    <glyph glyph-name="glyph440" 
d="M880 567l-334 -567h-89l-313 567l313 571h89zM790 567l-288 493l-272 -493l272 -492z" />
    <glyph glyph-name="glyph441" 
d="M880 567l-334 -567h-89l-313 567l313 571h89zM790 567l-288 493l-272 -493l272 -492z" />
    <glyph glyph-name="glyph442" 
d="M880 567l-334 -567h-89l-313 567l313 571h89zM790 567l-288 493l-272 -493l272 -492z" />
    <glyph glyph-name="glyph443" 
d="M880 567l-334 -567h-89l-313 567l313 571h89zM790 567l-288 493l-272 -493l272 -492z" />
    <glyph glyph-name="glyph444" 
d="M880 567l-334 -567h-89l-313 567l313 571h89zM790 567l-288 493l-272 -493l272 -492z" />
    <glyph glyph-name="glyph445" 
d="M880 567l-334 -567h-89l-313 567l313 571h89zM790 567l-288 493l-272 -493l272 -492z" />
    <glyph glyph-name="glyph446" 
d="M880 567l-334 -567h-89l-313 567l313 571h89zM790 567l-288 493l-272 -493l272 -492z" />
    <glyph glyph-name="glyph447" 
d="M880 567l-334 -567h-89l-313 567l313 571h89zM790 567l-288 493l-272 -493l272 -492z" />
    <glyph glyph-name="glyph448" 
d="M880 567l-334 -567h-89l-313 567l313 571h89zM790 567l-288 493l-272 -493l272 -492z" />
    <glyph glyph-name="glyph449" 
d="M880 567l-334 -567h-89l-313 567l313 571h89zM790 567l-288 493l-272 -493l272 -492z" />
    <glyph glyph-name="glyph450" 
d="M880 567l-334 -567h-89l-313 567l313 571h89zM790 567l-288 493l-272 -493l272 -492z" />
    <glyph glyph-name="glyph451" 
d="M880 567l-334 -567h-89l-313 567l313 571h89zM790 567l-288 493l-272 -493l272 -492z" />
    <glyph glyph-name="glyph452" 
d="M880 567l-334 -567h-89l-313 567l313 571h89zM790 567l-288 493l-272 -493l272 -492z" />
    <glyph glyph-name="glyph453" 
d="M880 567l-334 -567h-89l-313 567l313 571h89zM790 567l-288 493l-272 -493l272 -492z" />
    <glyph glyph-name="glyph454" 
d="M880 567l-334 -567h-89l-313 567l313 571h89zM790 567l-288 493l-272 -493l272 -492z" />
    <glyph glyph-name="glyph455" 
d="M880 567l-334 -567h-89l-313 567l313 571h89zM790 567l-288 493l-272 -493l272 -492z" />
    <glyph glyph-name="glyph456" 
d="M880 567l-334 -567h-89l-313 567l313 571h89zM790 567l-288 493l-272 -493l272 -492z" />
    <glyph glyph-name="glyph457" 
d="M880 567l-334 -567h-89l-313 567l313 571h89zM790 567l-288 493l-272 -493l272 -492z" />
    <glyph glyph-name="glyph458" 
d="M880 567l-334 -567h-89l-313 567l313 571h89zM790 567l-288 493l-272 -493l272 -492z" />
    <glyph glyph-name="glyph459" 
d="M880 567l-334 -567h-89l-313 567l313 571h89zM790 567l-288 493l-272 -493l272 -492z" />
    <glyph glyph-name="glyph460" 
d="M880 567l-334 -567h-89l-313 567l313 571h89zM790 567l-288 493l-272 -493l272 -492z" />
    <glyph glyph-name="glyph461" 
d="M880 567l-334 -567h-89l-313 567l313 571h89zM790 567l-288 493l-272 -493l272 -492z" />
    <glyph glyph-name="glyph462" 
d="M880 567l-334 -567h-89l-313 567l313 571h89zM790 567l-288 493l-272 -493l272 -492z" />
    <glyph glyph-name="glyph463" 
d="M880 567l-334 -567h-89l-313 567l313 571h89zM790 567l-288 493l-272 -493l272 -492z" />
    <glyph glyph-name="glyph464" 
d="M880 567l-334 -567h-89l-313 567l313 571h89zM790 567l-288 493l-272 -493l272 -492z" />
    <glyph glyph-name="glyph465" 
d="M880 567l-334 -567h-89l-313 567l313 571h89zM790 567l-288 493l-272 -493l272 -492z" />
    <glyph glyph-name="glyph466" 
d="M880 567l-334 -567h-89l-313 567l313 571h89zM790 567l-288 493l-272 -493l272 -492z" />
    <glyph glyph-name="glyph467" 
d="M880 567l-334 -567h-89l-313 567l313 571h89zM790 567l-288 493l-272 -493l272 -492z" />
    <glyph glyph-name="glyph468" 
d="M880 567l-334 -567h-89l-313 567l313 571h89zM790 567l-288 493l-272 -493l272 -492z" />
    <glyph glyph-name="glyph469" 
d="M880 567l-334 -567h-89l-313 567l313 571h89zM790 567l-288 493l-272 -493l272 -492z" />
    <glyph glyph-name="glyph470" 
d="M880 567l-334 -567h-89l-313 567l313 571h89zM790 567l-288 493l-272 -493l272 -492z" />
    <glyph glyph-name="glyph471" 
d="M880 567l-334 -567h-89l-313 567l313 571h89zM790 567l-288 493l-272 -493l272 -492z" />
    <glyph glyph-name="glyph472" 
d="M880 567l-334 -567h-89l-313 567l313 571h89zM790 567l-288 493l-272 -493l272 -492z" />
    <glyph glyph-name="glyph473" 
d="M880 567l-334 -567h-89l-313 567l313 571h89zM790 567l-288 493l-272 -493l272 -492z" />
    <glyph glyph-name="glyph474" 
d="M880 567l-334 -567h-89l-313 567l313 571h89zM790 567l-288 493l-272 -493l272 -492z" />
    <glyph glyph-name="glyph475" 
d="M880 567l-334 -567h-89l-313 567l313 571h89zM790 567l-288 493l-272 -493l272 -492z" />
    <glyph glyph-name="glyph476" 
d="M880 567l-334 -567h-89l-313 567l313 571h89zM790 567l-288 493l-272 -493l272 -492z" />
    <glyph glyph-name="glyph477" 
d="M880 567l-334 -567h-89l-313 567l313 571h89zM790 567l-288 493l-272 -493l272 -492z" />
    <glyph glyph-name="glyph478" 
d="M880 567l-334 -567h-89l-313 567l313 571h89zM790 567l-288 493l-272 -493l272 -492z" />
    <glyph glyph-name="glyph479" 
d="M880 567l-334 -567h-89l-313 567l313 571h89zM790 567l-288 493l-272 -493l272 -492z" />
    <glyph glyph-name="glyph480" 
d="M880 567l-334 -567h-89l-313 567l313 571h89zM790 567l-288 493l-272 -493l272 -492z" />
    <glyph glyph-name="glyph481" 
d="M880 567l-334 -567h-89l-313 567l313 571h89zM790 567l-288 493l-272 -493l272 -492z" />
    <glyph glyph-name="glyph482" 
d="M880 567l-334 -567h-89l-313 567l313 571h89zM790 567l-288 493l-272 -493l272 -492z" />
    <glyph glyph-name="glyph483" 
d="M880 567l-334 -567h-89l-313 567l313 571h89zM790 567l-288 493l-272 -493l272 -492z" />
    <glyph glyph-name="glyph484" 
d="M880 567l-334 -567h-89l-313 567l313 571h89zM790 567l-288 493l-272 -493l272 -492z" />
    <glyph glyph-name="glyph485" 
d="M880 567l-334 -567h-89l-313 567l313 571h89zM790 567l-288 493l-272 -493l272 -492z" />
    <glyph glyph-name="glyph486" 
d="M880 567l-334 -567h-89l-313 567l313 571h89zM790 567l-288 493l-272 -493l272 -492z" />
    <glyph glyph-name="glyph487" 
d="M880 567l-334 -567h-89l-313 567l313 571h89zM790 567l-288 493l-272 -493l272 -492z" />
    <glyph glyph-name="glyph488" 
d="M880 567l-334 -567h-89l-313 567l313 571h89zM790 567l-288 493l-272 -493l272 -492z" />
    <glyph glyph-name="glyph489" 
d="M880 567l-334 -567h-89l-313 567l313 571h89zM790 567l-288 493l-272 -493l272 -492z" />
    <glyph glyph-name="glyph490" 
d="M880 567l-334 -567h-89l-313 567l313 571h89zM790 567l-288 493l-272 -493l272 -492z" />
    <glyph glyph-name="glyph491" 
d="M880 567l-334 -567h-89l-313 567l313 571h89zM790 567l-288 493l-272 -493l272 -492z" />
    <glyph glyph-name="glyph492" 
d="M880 567l-334 -567h-89l-313 567l313 571h89zM790 567l-288 493l-272 -493l272 -492z" />
    <glyph glyph-name="glyph493" 
d="M880 567l-334 -567h-89l-313 567l313 571h89zM790 567l-288 493l-272 -493l272 -492z" />
    <glyph glyph-name="glyph494" 
d="M880 567l-334 -567h-89l-313 567l313 571h89zM790 567l-288 493l-272 -493l272 -492z" />
    <glyph glyph-name="glyph495" 
d="M880 567l-334 -567h-89l-313 567l313 571h89zM790 567l-288 493l-272 -493l272 -492z" />
    <glyph glyph-name="glyph496" 
d="M880 567l-334 -567h-89l-313 567l313 571h89zM790 567l-288 493l-272 -493l272 -492z" />
    <glyph glyph-name="glyph497" 
d="M880 567l-334 -567h-89l-313 567l313 571h89zM790 567l-288 493l-272 -493l272 -492z" />
    <glyph glyph-name="glyph498" 
d="M880 567l-334 -567h-89l-313 567l313 571h89zM790 567l-288 493l-272 -493l272 -492z" />
    <glyph glyph-name="glyph499" 
d="M880 567l-334 -567h-89l-313 567l313 571h89zM790 567l-288 493l-272 -493l272 -492z" />
    <glyph glyph-name="glyph500" 
d="M880 567l-334 -567h-89l-313 567l313 571h89zM790 567l-288 493l-272 -493l272 -492z" />
    <glyph glyph-name="glyph501" 
d="M880 567l-334 -567h-89l-313 567l313 571h89zM790 567l-288 493l-272 -493l272 -492z" />
    <glyph glyph-name="glyph502" 
d="M880 567l-334 -567h-89l-313 567l313 571h89zM790 567l-288 493l-272 -493l272 -492z" />
    <glyph glyph-name="glyph503" 
d="M880 567l-334 -567h-89l-313 567l313 571h89zM790 567l-288 493l-272 -493l272 -492z" />
    <glyph glyph-name="glyph504" 
d="M880 567l-334 -567h-89l-313 567l313 571h89zM790 567l-288 493l-272 -493l272 -492z" />
    <glyph glyph-name="glyph505" 
d="M880 567l-334 -567h-89l-313 567l313 571h89zM790 567l-288 493l-272 -493l272 -492z" />
    <glyph glyph-name="glyph506" 
d="M880 567l-334 -567h-89l-313 567l313 571h89zM790 567l-288 493l-272 -493l272 -492z" />
    <glyph glyph-name="glyph507" 
d="M880 567l-334 -567h-89l-313 567l313 571h89zM790 567l-288 493l-272 -493l272 -492z" />
    <glyph glyph-name="glyph508" 
d="M880 567l-334 -567h-89l-313 567l313 571h89zM790 567l-288 493l-272 -493l272 -492z" />
    <glyph glyph-name="glyph509" 
d="M880 567l-334 -567h-89l-313 567l313 571h89zM790 567l-288 493l-272 -493l272 -492z" />
    <glyph glyph-name="glyph510" 
d="M880 567l-334 -567h-89l-313 567l313 571h89zM790 567l-288 493l-272 -493l272 -492z" />
    <glyph glyph-name="glyph511" 
d="M880 567l-334 -567h-89l-313 567l313 571h89zM790 567l-288 493l-272 -493l272 -492z" />
    <glyph glyph-name="glyph512" 
d="M880 567l-334 -567h-89l-313 567l313 571h89zM790 567l-288 493l-272 -493l272 -492z" />
    <glyph glyph-name="glyph513" 
d="M880 567l-334 -567h-89l-313 567l313 571h89zM790 567l-288 493l-272 -493l272 -492z" />
    <glyph glyph-name="glyph514" 
d="M880 567l-334 -567h-89l-313 567l313 571h89zM790 567l-288 493l-272 -493l272 -492z" />
    <glyph glyph-name="glyph515" 
d="M880 567l-334 -567h-89l-313 567l313 571h89zM790 567l-288 493l-272 -493l272 -492z" />
    <glyph glyph-name="glyph516" 
d="M880 567l-334 -567h-89l-313 567l313 571h89zM790 567l-288 493l-272 -493l272 -492z" />
    <glyph glyph-name="glyph517" 
d="M880 567l-334 -567h-89l-313 567l313 571h89zM790 567l-288 493l-272 -493l272 -492z" />
    <glyph glyph-name="glyph518" 
d="M880 567l-334 -567h-89l-313 567l313 571h89zM790 567l-288 493l-272 -493l272 -492z" />
    <glyph glyph-name="glyph519" 
d="M880 567l-334 -567h-89l-313 567l313 571h89zM790 567l-288 493l-272 -493l272 -492z" />
    <glyph glyph-name="glyph520" 
d="M880 567l-334 -567h-89l-313 567l313 571h89zM790 567l-288 493l-272 -493l272 -492z" />
    <glyph glyph-name="glyph521" 
d="M880 567l-334 -567h-89l-313 567l313 571h89zM790 567l-288 493l-272 -493l272 -492z" />
    <glyph glyph-name="glyph522" 
d="M880 567l-334 -567h-89l-313 567l313 571h89zM790 567l-288 493l-272 -493l272 -492z" />
    <glyph glyph-name="glyph523" 
d="M880 567l-334 -567h-89l-313 567l313 571h89zM790 567l-288 493l-272 -493l272 -492z" />
    <glyph glyph-name="glyph524" 
d="M880 567l-334 -567h-89l-313 567l313 571h89zM790 567l-288 493l-272 -493l272 -492z" />
    <glyph glyph-name="glyph525" 
d="M880 567l-334 -567h-89l-313 567l313 571h89zM790 567l-288 493l-272 -493l272 -492z" />
    <glyph glyph-name="glyph526" 
d="M880 567l-334 -567h-89l-313 567l313 571h89zM790 567l-288 493l-272 -493l272 -492z" />
    <glyph glyph-name="glyph527" 
d="M880 567l-334 -567h-89l-313 567l313 571h89zM790 567l-288 493l-272 -493l272 -492z" />
    <glyph glyph-name="glyph528" 
d="M880 567l-334 -567h-89l-313 567l313 571h89zM790 567l-288 493l-272 -493l272 -492z" />
    <glyph glyph-name="glyph529" 
d="M880 567l-334 -567h-89l-313 567l313 571h89zM790 567l-288 493l-272 -493l272 -492z" />
    <glyph glyph-name="glyph530" 
d="M880 567l-334 -567h-89l-313 567l313 571h89zM790 567l-288 493l-272 -493l272 -492z" />
    <glyph glyph-name="glyph531" 
d="M880 567l-334 -567h-89l-313 567l313 571h89zM790 567l-288 493l-272 -493l272 -492z" />
    <glyph glyph-name="glyph532" 
d="M880 567l-334 -567h-89l-313 567l313 571h89zM790 567l-288 493l-272 -493l272 -492z" />
    <glyph glyph-name="glyph533" 
d="M880 567l-334 -567h-89l-313 567l313 571h89zM790 567l-288 493l-272 -493l272 -492z" />
    <glyph glyph-name="glyph534" 
d="M880 567l-334 -567h-89l-313 567l313 571h89zM790 567l-288 493l-272 -493l272 -492z" />
    <glyph glyph-name="glyph535" 
d="M880 567l-334 -567h-89l-313 567l313 571h89zM790 567l-288 493l-272 -493l272 -492z" />
    <glyph glyph-name="glyph536" 
d="M880 567l-334 -567h-89l-313 567l313 571h89zM790 567l-288 493l-272 -493l272 -492z" />
    <glyph glyph-name="glyph537" 
d="M880 567l-334 -567h-89l-313 567l313 571h89zM790 567l-288 493l-272 -493l272 -492z" />
    <glyph glyph-name="glyph538" 
d="M880 567l-334 -567h-89l-313 567l313 571h89zM790 567l-288 493l-272 -493l272 -492z" />
    <glyph glyph-name="glyph539" 
d="M880 567l-334 -567h-89l-313 567l313 571h89zM790 567l-288 493l-272 -493l272 -492z" />
    <glyph glyph-name="glyph540" 
d="M880 567l-334 -567h-89l-313 567l313 571h89zM790 567l-288 493l-272 -493l272 -492z" />
    <glyph glyph-name="glyph541" 
d="M880 567l-334 -567h-89l-313 567l313 571h89zM790 567l-288 493l-272 -493l272 -492z" />
    <glyph glyph-name="glyph542" 
d="M880 567l-334 -567h-89l-313 567l313 571h89zM790 567l-288 493l-272 -493l272 -492z" />
    <glyph glyph-name="glyph543" 
d="M880 567l-334 -567h-89l-313 567l313 571h89zM790 567l-288 493l-272 -493l272 -492z" />
    <glyph glyph-name="glyph544" 
d="M880 567l-334 -567h-89l-313 567l313 571h89zM790 567l-288 493l-272 -493l272 -492z" />
    <glyph glyph-name="glyph545" 
d="M880 567l-334 -567h-89l-313 567l313 571h89zM790 567l-288 493l-272 -493l272 -492z" />
    <glyph glyph-name="glyph546" 
d="M880 567l-334 -567h-89l-313 567l313 571h89zM790 567l-288 493l-272 -493l272 -492z" />
    <glyph glyph-name="glyph547" 
d="M880 567l-334 -567h-89l-313 567l313 571h89zM790 567l-288 493l-272 -493l272 -492z" />
    <glyph glyph-name="glyph548" 
d="M880 567l-334 -567h-89l-313 567l313 571h89zM790 567l-288 493l-272 -493l272 -492z" />
    <glyph glyph-name="glyph549" 
d="M880 567l-334 -567h-89l-313 567l313 571h89zM790 567l-288 493l-272 -493l272 -492z" />
    <glyph glyph-name="nonbreakingspace" horiz-adv-x="681" 
 />
    <glyph glyph-name="periodcentered" horiz-adv-x="717" 
d="M614 677q0 -105 -73 -178t-178 -73t-178 73t-73 178t73 178t178 73t178 -73t73 -178z" />
    <glyph glyph-name="bullet" horiz-adv-x="717" 
d="M614 677q0 -105 -73 -178t-178 -73t-178 73t-73 178t73 178t178 73t178 -73t73 -178z" />
    <glyph glyph-name="bulletmath" horiz-adv-x="717" 
d="M614 677q0 -105 -73 -178t-178 -73t-178 73t-73 178t73 178t178 73t178 -73t73 -178z" />
    <glyph glyph-name="endash" 
d="M1041 453h-1059v73h1059v-73z" />
  </font>
</defs>
</svg>
